Results 1 to 1 of 1
  1. #1
    Super Member www.desirulez.net
    Join Date
    Sep 2012
    Location
    Pakistan
    Posts
    354

    Default Kamaal Dhamaal Malamaal (2012) 720p DVDRip x264 AC3 MSubs [DDR]

    Follow us on Social Media









    Code:
    Complete name                            : 720p-kdm-ddr.mkv
    Ripper					 : th3obr0
    Source:					 : DVD9
    
    Format                                   : Matroska
    Format version                           : Version 2
    File size                                : 2.75 GiB
    Duration                                 : 2h 20mn
    Overall bit rate                         : 2 808 Kbps
    Encoded date                             : UTC 2012-11-17 07:09:55
    Writing application                      : mkvmerge v5.6.0 ('Kenya Kane') built on May 27 2012 16:44:04
    Writing library                          : libebml v1.2.3 + libmatroska v1.3.0
    
    Video
    ID                                       : 1
    Format                                   : AVC
    Format/Info                              : Advanced Video Codec
    Format profile                           : [email protected]
    Format settings, CABAC                   : Yes
    Format settings, ReFrames                : 4 frames
    Codec ID                                 : V_MPEG4/ISO/AVC
    Duration                                 : 2h 20mn
    Bit rate                                 : 2 355 Kbps
    Width                                    : 1 280 pixels
    Height                                   : 544 pixels
    Display aspect ratio                     : 2.35:1
    Frame rate mode                          : Constant
    Frame rate                               : 23.976 fps
    Color space                              : YUV
    Chroma subsampling                       : 4:2:0
    Bit depth                                : 8 bits
    Scan type                                : Progressive
    Bits/(Pixel*Frame)                       : 0.141
    Stream size                              : 2.26 GiB (82%)
    Title                                    : KDM 720p [DDR]
    Writing library                          : x264 core 125 r2200 999b753
    Language                                 : Hindi
    Default                                  : Yes
    Forced                                   : No
    
    Audio
    ID                                       : 2
    Format                                   : AC-3
    Format/Info                              : Audio Coding 3
    Mode extension                           : CM (complete main)
    Format settings, Endianness              : Big
    Codec ID                                 : A_AC3
    Duration                                 : 2h 20mn
    Bit rate mode                            : Constant
    Bit rate                                 : 448 Kbps
    Channel(s)                               : 6 channels
    Channel positions                        : Front: L C R, Side: L R, LFE
    Sampling rate                            : 48.0 KHz
    Bit depth                                : 16 bits
    Compression mode                         : Lossy
    Delay relative to video                  : 50ms
    Stream size                              : 449 MiB (16%)
    Title                                    : 5.1 AC3 [DDR]
    Language                                 : Hindi
    Default                                  : Yes
    Forced                                   : No











    SINGLE LINKS


    Code:
    http://rapidgator.net/file/57462381/Kamaal.Dhamaal.Malamaal.(2012).720p.DVDRip.AC3.MSubs.[DDR].mkv.html

    Code:
    http://lumfile.com/43md4yxwj9lz/Kamaal.Dhamaal.Malamaal.(2012).720p.DVDRip.AC3.MSubs.[DDR].mkv.html

    Code:
    http://rapidgator.net/file/57460652/Kamaal.Dhamaal.Malamaal.(2012).720p.DVDRip.AC3.MSubs.[DDR].mkv.001.html
    http://rapidgator.net/file/57460681/Kamaal.Dhamaal.Malamaal.(2012).720p.DVDRip.AC3.MSubs.[DDR].mkv.002.html
    http://rapidgator.net/file/57460683/Kamaal.Dhamaal.Malamaal.(2012).720p.DVDRip.AC3.MSubs.[DDR].mkv.003.html
    http://rapidgator.net/file/57460703/Kamaal.Dhamaal.Malamaal.(2012).720p.DVDRip.AC3.MSubs.[DDR].mkv.004.html
    http://rapidgator.net/file/57460583/Kamaal.Dhamaal.Malamaal.(2012).720p.DVDRip.AC3.MSubs.[DDR].mkv.005.html
    http://rapidgator.net/file/57460587/Kamaal.Dhamaal.Malamaal.(2012).720p.DVDRip.AC3.MSubs.[DDR].zip.html

    Code:
    http://lumfile.com/wng9ke0r2olu/Kamaal.Dhamaal.Malamaal.(2012).720p.DVDRip.AC3.MSubs.[DDR].mkv.001.html
    http://lumfile.com/11tt4yfhb2jd/Kamaal.Dhamaal.Malamaal.(2012).720p.DVDRip.AC3.MSubs.[DDR].mkv.002.html
    http://lumfile.com/mufuh6wms6ex/Kamaal.Dhamaal.Malamaal.(2012).720p.DVDRip.AC3.MSubs.[DDR].mkv.003.html
    http://lumfile.com/782k28cu9xym/Kamaal.Dhamaal.Malamaal.(2012).720p.DVDRip.AC3.MSubs.[DDR].mkv.004.html
    http://lumfile.com/ofg2gc6paij4/Kamaal.Dhamaal.Malamaal.(2012).720p.DVDRip.AC3.MSubs.[DDR].mkv.005.html
    http://lumfile.com/9z15bxxfbfvn/Kamaal.Dhamaal.Malamaal.(2012).720p.DVDRip.AC3.MSubs.[DDR].zip.html

 

 

Posting Permissions

  • You may not post new threads
  • You may not post replies
  • You may not post attachments
  • You may not edit your posts
  •