Results 1 to 1 of 1
  1. #1
    dR Rockers www.desirulez.net
    Join Date
    Jun 2012
    Posts
    1,341

    Thumbs up Kamaal Dhamaal Malamaal (2012) - 1CD - DVDRip - XviD - Msubs [DDR]

    Follow us on Social Media







    (2012)
    **DVDRip XviD 1CDRip**




    [ NFO ]

    Code:
    Complete name                            : C:\ddr ripper\th3o\releases\KDM 1cd\1cd-dvdip-kdm-ddr.avi
    Ripper					 : th3obr0
    Source					 : DVD9 
    
    Format/Info                              : Audio Video Interleave
    File size                                : 696 MiB
    Duration                                 : 2h 20mn
    Overall bit rate                         : 694 Kbps
    Writing application                      : VirtualDubMod 1.5.10.2 (build 2540/release)
    Writing library                          : VirtualDubMod build 2540/release
    
    Video
    ID                                       : 0
    Format                                   : MPEG-4 Visual
    Format profile                           : Advanced [email protected]
    Format settings, BVOP                    : 1
    Format settings, QPel                    : No
    Format settings, GMC                     : No warppoints
    Format settings, Matrix                  : Custom
    Codec ID                                 : XVID
    Codec ID/Hint                            : XviD
    Duration                                 : 2h 20mn
    Bit rate                                 : 605 Kbps
    Width                                    : 608 pixels
    Height                                   : 256 pixels
    Display aspect ratio                     : 2.40:1
    Frame rate                               : 23.976 fps
    Color space                              : YUV
    Chroma subsampling                       : 4:2:0
    Bit depth                                : 8 bits
    Scan type                                : Progressive
    Compression mode                         : Lossy
    Bits/(Pixel*Frame)                       : 0.162
    Stream size                              : 607 MiB (87%)
    Writing library                          : XviD 1.2.1 (UTC 2008-12-04)
    
    Audio
    ID                                       : 1
    Format                                   : MPEG Audio
    Format version                           : Version 1
    Format profile                           : Layer 3
    Mode                                     : Joint stereo
    Mode extension                           : MS Stereo
    Codec ID                                 : 55
    Codec ID/Hint                            : MP3
    Duration                                 : 2h 20mn
    Bit rate mode                            : Constant
    Bit rate                                 : 80.0 Kbps
    Channel(s)                               : 2 channels
    Sampling rate                            : 32.0 KHz
    Compression mode                         : Lossy
    Stream size                              : 80.2 MiB (12%)
    Alignment                                : Aligned on interleaves
    Interleave, duration                     : 42 ms (1.00 video frame)
    Interleave, preload duration             : 504 ms
    Writing library                          : LAME3.99r
    Encoding settings                        : -m j -V 4 -q 2 -lowpass 13.5 -b 80
    [ SCREENS ]

















    Sample
    Code:
    http://upload-novalayer.com/0owx2wsk0l8p.html
    DownLoad

    NetLoad
    Code:
    http://netload.in/dateiBOAiazs5EU/1cd-dvdip-kdm-ddr.avi.htm
    
    http://netload.in/dateiaTn6EhgRcq/1cd-dvdip-kdm-ddr.zip.htm
    ExtaBit
    Code:
    http://extabit.com/file/279zbiy8h4lhp/1cd-dvdip-kdm-ddr.avi
    
    http://extabit.com/file/279zbiy8h4ia5/1cd-dvdip-kdm-ddr.zip
    Uploaded.to
    Code:
    http://uploaded.net/file/ipu6y092/1cd-dvdip-kdm-ddr.avi
    
    http://uploaded.net/file/xxy9e9g8/1cd-dvdip-kdm-ddr.zip
    RapidGator
    Code:
    http://rapidgator.net/file/57453627/1cd-dvdip-kdm-ddr.avi.html
    
    http://rapidgator.net/file/57450585/1cd-dvdip-kdm-ddr.zip.html

 

 

Posting Permissions

  • You may not post new threads
  • You may not post replies
  • You may not post attachments
  • You may not edit your posts
  •