Results 1 to 1 of 1
  1. #1
    dR Rockers www.desirulez.net
    Join Date
    Aug 2011
    Posts
    5,859

    Cool Student Of The Year (2012) - 700MB - PRE-DVD - [EXD Exclusive]

    Follow us on Social Media













    Code:
    Rip Information
    
    Format                                   : Matroska
    Format version                           : Version 2
    File size                                : 697 MiB
    Duration                                 : 2h 6mn
    Overall bit rate                         : 773 Kbps
    Movie name                               : Student Of The Year [2012] DVDSCR (Audio Cleaned) By [email protected]
    
    
    
    Video
    
    Codec ID                                 : V_MPEG4/ISO/AVC
    Duration                                 : 2h 6mn
    Bit rate                                 : 644 Kbps
    Width                                    : 688 pixels
    Height                                   : 260 pixels
    Display aspect ratio                     : 2.646
    Frame rate mode                          : Constant
    Frame rate                               : 23.976 fps
    Color space                              : YUV
    Chroma subsampling                       : 4:2:0
    Bit depth                                : 8 bits
    Scan type                                : Progressive
    Bits/(Pixel*Frame)                       : 0.150
    Stream size                              : 567 MiB (81%)
    Title                                    : [email protected]
    
    
    
    Audio
    
    Codec ID                                 : A_AC3
    Duration                                 : 2h 6mn
    Bit rate mode                            : Constant
    Bit rate                                 : 128 Kbps
    Channel(s)                               : 2 channels
    Channel positions                        : Front: L R
    Sampling rate                            : 48.0 KHz
    Bit depth                                : 16 bits
    Compression mode                         : Lossy
    Stream size                              : 115 MiB (17%)
    Title                                    : [email protected]
    Language                                 : Hindi











    SINGLE DIRECT FAST LINKS


    Code:
    http://ryushare.com/1f0386651331/Student_Of_The_Year_[2012]_DVDSCR_(Audio_Cleaned)[email protected]_[EXD_Exclusive].mkv
    Code:
    http://extabit.com/file/2dubso2scimsa/Student Of The Year [2012] DVDSCR (Audio Cleaned) By [email protected] [EXD Exclusive].mkv



 

 

Posting Permissions

  • You may not post new threads
  • You may not post replies
  • You may not post attachments
  • You may not edit your posts
  •