Results 1 to 1 of 1
  1. #1
    Super Member www.desirulez.net
    Join Date
    Sep 2012
    Location
    Pakistan
    Posts
    354

    Default Son Of Sardaar (2012) - HQ Super Cam Rip - XviD - Mp3 - [700MB] - D3Si Exclusive

    Follow us on Social Media






    Code:
    General
    Complete name: BKP12.sc.sardr.700_2.avi
    Format : AVI
    Format/Info: Audio Video Interleave
    File size: 691 MiB
    Duration : 2h 13mn
    Overall bit rate : 726 Kbps
    Writing library: Boilsoft AVI tool build 30012/release
    
    Video
    ID : 0
    Format : MPEG-4 Visual
    Format profile : Advanced [email protected]
    Format settings, BVOP: 2
    Format settings, QPel: No
    Format settings, GMC : No warppoints
    Format settings, Matrix: Default (H.263)
    Codec ID : XVID
    Codec ID/Hint: XviD
    Duration : 2h 13mn
    Bit rate : 620 Kbps
    Width: 592 pixels
    Height : 272 pixels
    Display aspect ratio : 2.2:1
    Frame rate : 25.000 fps
    Color space: YUV
    Chroma subsampling : 4:2:0
    Bit depth: 8 bits
    Scan type: Progressive
    Compression mode : Lossy
    Bits/(Pixel*Frame) : 0.154
    Stream size: 590 MiB (85%)
    Writing library: XviD 1.2.1 (UTC 2008-12-04)
    
    Audio
    ID : 1
    Format : MPEG Audio
    Format version : Version 1
    Format profile : Layer 3
    Mode : Joint stereo
    Mode extension : MS Stereo
    Codec ID : 55
    Codec ID/Hint: MP3
    Duration : 2h 13mn
    Bit rate mode: Constant
    Bit rate : 96.0 Kbps
    Channel(s) : 2 channels
    Sampling rate: 32.0 KHz
    Compression mode : Lossy
    Delay relative to video: 4ms
    Stream size: 91.4 MiB (13%)
    Alignment: Split accross interleaves
    Interleave, duration : 40 ms (1.00 video frame)
    Interleave, preload duration : 500 ms
    Writing library: LAME3.99.5




    DOWNLOAD

    Code:
    http://rapidgator.net/file/56500293/BKP12.sc.sardr.700_2.avi.html

    Code:
    http://lumfile.com/v0x9h5zvv8ao/BKP12.sc.sardr.700_2.avi.html

 

 

Posting Permissions

  • You may not post new threads
  • You may not post replies
  • You may not post attachments
  • You may not edit your posts
  •