Results 1 to 1 of 1
  1. #1
    dR Contributor www.desirulez.net
    Join Date
    Jul 2012
    Posts
    795

    Cool TNA.Turning.Point.2012.DL.x264.GSN

    Follow us on Social Media





    TNA Turning Point 2012








    DL.x264.GSN




    Code:
    Video 
    ID : 1 
    Format : AVC 
    Format/Info : Advanced Video Codec 
    Format profile : [email protected] 
    Format settings, CABAC : Yes 
    Format settings, ReFrames : 4 frames 
    Codec ID : avc1 
    Codec ID/Info : Advanced Video Coding 
    Duration : 2h 53mn 
    Bit rate mode : Variable 
    Bit rate : 2 000 Kbps 
    Width : 704 pixels 
    Height : 400 pixels 
    Display aspect ratio : 16:9 
    Frame rate mode : Variable 
    Frame rate : 25.000 fps 
    Audio #1 
    ID : 2 
    Format : AAC 
    Format/Info : Advanced Audio Codec 
    Format profile : LC 
    Codec ID : 40 
    Duration : 2h 53mn 
    Bit rate mode : Variable 
    Bit rate : 160 Kbps 
    Maximum bit rate : 215 Kbps 
    Channel(s) : 2 channels 
    Channel positions : Front: L R 
    Sampling rate : 48.0 KHz 
    Compression mode : Lossy 
    Stream size : 199 MiB (7%) 
    Language : German 
    ------------------------------ 
     
    Audio #2 
    ID : 3 
    Format : AAC 
    Format/Info : Advanced Audio Codec 
    Format profile : LC 
    Codec ID : 40 
    Duration : 2h 53mn 
    Bit rate mode : Variable 
    Bit rate : 160 Kbps 
    Maximum bit rate : 189 Kbps 
    Channel(s) : 2 channels 
    Channel positions : Front: L R 
    Sampling rate : 48.0 KHz 
    Compression mode : Lossy 
    Stream size : 199 MiB (7%) 
    Language : Englisch



    One Link

    Uploaded.To
    Code:
    http://uploaded.net/file/9vzxpy3s/TNA.Turning.Point.2012.DL.x264.GSN.mp4
    ShareFlare
    Code:
    http://shareflare.net/download/45671.4c828e55fa0e4c4997884ecfb563/TNA.Turning.Point.2012.DL.x264.GSN.mp4.html
    1GB Links :

    Uploaded.To
    Code:
    http://uploaded.net/file/iihyutlf/TNA.Turning.Point.2012.DL.x264.GSN.part3.rar
    http://uploaded.net/file/ne9jd3sj/TNA.Turning.Point.2012.DL.x264.GSN.part1.rar
    http://uploaded.net/file/274rlnnb/TNA.Turning.Point.2012.DL.x264.GSN.part2.rar
    ShareFlare
    Code:
    http://shareflare.net/download/38084.35ef0c99ebd8f65b3224ea3a0a5f/TNA.Turning.Point.2012.DL.x264.GSN.part3.rar.html
    http://shareflare.net/download/17517.1e150b25d564657b232b3c82a18c/TNA.Turning.Point.2012.DL.x264.GSN.part1.rar.html
    http://shareflare.net/download/90937.96b91ac7de6b4d29f1e066e7b5a1/TNA.Turning.Point.2012.DL.x264.GSN.part2.rar.html
    TurboBit
    Code:
    http://turbobit.net/lut7nb6p9sq8.html
    http://turbobit.net/ndiukt43a7mo.html
    http://turbobit.net/mfe2cynjrjdm.html



 

 

Posting Permissions

  • You may not post new threads
  • You may not post replies
  • You may not post attachments
  • You may not edit your posts
  •