Results 1 to 1 of 1
  1. #1
    Senior Member www.desirulez.net
    Join Date
    Oct 2012
    Posts
    91

    Thumbs up TNA.Turning.Point.2012.DL.x264.GSN

    Follow us on Social Media





    TNA.Turning.Point.2012.DL.x264.GSN



    Video
    ID : 1
    Format : AVC
    Format/Info : Advanced Video Codec
    Format profile : [email protected]
    Format settings, CABAC : Yes
    Format settings, ReFrames : 4 frames
    Codec ID : avc1
    Codec ID/Info : Advanced Video Coding
    Duration : 2h 53mn
    Bit rate mode : Variable
    Bit rate : 2 000 Kbps
    Width : 704 pixels
    Height : 400 pixels
    Display aspect ratio : 16:9
    Frame rate mode : Variable
    Frame rate : 25.000 fps
    Audio #1
    ID : 2
    Format : AAC
    Format/Info : Advanced Audio Codec
    Format profile : LC
    Codec ID : 40
    Duration : 2h 53mn
    Bit rate mode : Variable
    Bit rate : 160 Kbps
    Maximum bit rate : 215 Kbps
    Channel(s) : 2 channels
    Channel positions : Front: L R
    Sampling rate : 48.0 KHz
    Compression mode : Lossy
    Stream size : 199 MiB (7%)
    Language : German
    ------------------------------

    Audio #2
    ID : 3
    Format : AAC
    Format/Info : Advanced Audio Codec
    Format profile : LC
    Codec ID : 40
    Duration : 2h 53mn
    Bit rate mode : Variable
    Bit rate : 160 Kbps
    Maximum bit rate : 189 Kbps
    Channel(s) : 2 channels
    Channel positions : Front: L R
    Sampling rate : 48.0 KHz
    Compression mode : Lossy
    Stream size : 199 MiB (7%)
    Language : Englisch


    Code:
    http://fastupload.ro/786e212740eeacefc2c1a5355a8e9db7.html
    http://fastupload.ro/43d590667388a33ea55812ff289cbaeb.html
    http://fastupload.ro/2462ac8ec886b8e4139725337e81f586.html
    
    http://netload.in/dateiCU0ekuuwMY/TNA.Turning.Point.2012.DL.x264.GSN-ELGeeL3.part1.rar.htm
    http://netload.in/dateiEgXU2jSXWl/TNA.Turning.Point.2012.DL.x264.GSN-ELGeeL3.part2.rar.htm
    http://netload.in/dateiWwH1JvbUYr/TNA.Turning.Point.2012.DL.x264.GSN-ELGeeL3.part3.rar.htm
    
    http://www.putlocker.com/file/E48B80BCA8ABC748
    http://www.putlocker.com/file/1E6BC14DD0BDA9B5
    http://www.putlocker.com/file/1FDAB5B8BA74E81A
    
    http://rapidgator.net/file/56049202/TNA.Turning.Point.2012.DL.x264.GSN-ELGeeL3.part1.rar.html
    http://rapidgator.net/file/56049200/TNA.Turning.Point.2012.DL.x264.GSN-ELGeeL3.part2.rar.html
    http://rapidgator.net/file/56049188/TNA.Turning.Point.2012.DL.x264.GSN-ELGeeL3.part3.rar.html
    
    http://rapidshare.com/files/1077599216/TNA.Turning.Point.2012.DL.x264.GSN-ELGeeL3.part1.rar
    http://rapidshare.com/files/440537436/TNA.Turning.Point.2012.DL.x264.GSN-ELGeeL3.part2.rar
    http://rapidshare.com/files/2402476369/TNA.Turning.Point.2012.DL.x264.GSN-ELGeeL3.part3.rar
    
    http://www.share-online.biz/dl/6RNO7DDMR97K
    http://www.share-online.biz/dl/1MKO7DDM4Y
    http://www.share-online.biz/dl/A7VN7DDMA3WH
    
    http://www.sharpfile.com/ntx76pw2bk/TNA.Turning.Point.2012.DL.x264.GSN-ELGeeL3.part1.rar.html
    http://www.sharpfile.com/wtbp8fkry/TNA.Turning.Point.2012.DL.x264.GSN-ELGeeL3.part2.rar.html
    http://www.sharpfile.com/xhfcpbw6kdjg/TNA.Turning.Point.2012.DL.x264.GSN-ELGeeL3.part3.rar.html
    
    http://ul.to/ysepk60t/TNA.Turning.Point.2012.DL.x264.GSN-ELGeeL3.part1.rar
    http://ul.to/uhokwsq3/TNA.Turning.Point.2012.DL.x264.GSN-ELGeeL3.part2.rar
    http://ul.to/iphm0isv/TNA.Turning.Point.2012.DL.x264.GSN-ELGeeL3.part3.rar
    
    http://uploadjet.net/nnso8kolfd8t/TNA.Turning.Point.2012.DL.x264.GSN-ELGeeL3.part1.rar.htm
    http://uploadjet.net/8jk1jf3rd1wr/TNA.Turning.Point.2012.DL.x264.GSN-ELGeeL3.part2.rar.htm
    http://uploadjet.net/aukyjukytdwl/TNA.Turning.Point.2012.DL.x264.GSN-ELGeeL3.part3.rar.htm

 

 

Posting Permissions

  • You may not post new threads
  • You may not post replies
  • You may not post attachments
  • You may not edit your posts
  •