Results 1 to 1 of 1
  1. #1
    Banned www.desirulez.net
    Join Date
    Oct 2010
    Posts
    2,885

    Wink TNA.Turning.Point.2012.HDTV.DL.x264-GSN

    Follow us on Social Media





    TNA.Turning.Point.2012.HDTV.DL.x264-GSN



    Video
    ID : 1
    Format : AVC
    Format/Info : Advanced Video Codec
    Format profile : [email protected]
    Format settings, CABAC : Yes
    Format settings, ReFrames : 4 frames
    Codec ID : avc1
    Codec ID/Info : Advanced Video Coding
    Duration : 2h 53mn
    Bit rate mode : Variable
    Bit rate : 2 000 Kbps
    Width : 704 pixels
    Height : 400 pixels
    Display aspect ratio : 16:9
    Frame rate mode : Variable
    Frame rate : 25.000 fps
    Audio #1
    ID : 2
    Format : AAC
    Format/Info : Advanced Audio Codec
    Format profile : LC
    Codec ID : 40
    Duration : 2h 53mn
    Bit rate mode : Variable
    Bit rate : 160 Kbps
    Maximum bit rate : 215 Kbps
    Channel(s) : 2 channels
    Channel positions : Front: L R
    Sampling rate : 48.0 KHz
    Compression mode : Lossy
    Stream size : 199 MiB (7%)
    Language : German
    ------------------------------

    Audio #2
    ID : 3
    Format : AAC
    Format/Info : Advanced Audio Codec
    Format profile : LC
    Codec ID : 40
    Duration : 2h 53mn
    Bit rate mode : Variable
    Bit rate : 160 Kbps
    Maximum bit rate : 189 Kbps
    Channel(s) : 2 channels
    Channel positions : Front: L R
    Sampling rate : 48.0 KHz
    Compression mode : Lossy
    Stream size : 199 MiB (7%)
    Language : Englisch
    Code:
    UPLOADED>TO
    http://ul.to/woq547sy/TNA.Turning.Point.2012.DL.x264.GSN.mp4
    http://ul.to/qi4gf1gf/TNA.Turning.Point.2012.DL.x264.GSN.part1.rar
    http://ul.to/qb7djaxm/TNA.Turning.Point.2012.DL.x264.GSN.part2.rar
    http://ul.to/2l13fro0/TNA.Turning.Point.2012.DL.x264.GSN.part3.rar
    
    EXTABIT
    http://extabit.com/file/279o6llcvnfeg/TNA.Turning.Point.2012.DL.x264.GSN.part3.rar
    http://extabit.com/file/279o6llcwa5yg/TNA.Turning.Point.2012.DL.x264.GSN.part1.rar
    http://extabit.com/file/279o6llcwa5yw/TNA.Turning.Point.2012.DL.x264.GSN.part2.rar
    
    NETLOAD
    http://netload.in/dateim59yu9rIkn/TNA.Turning.Point.2012.DL.x264.GSN.part1.rar.htm
    http://netload.in/dateiz1o2we2bpI/TNA.Turning.Point.2012.DL.x264.GSN.part2.rar.htm
    http://netload.in/dateiYDY3Yq3xjx/TNA.Turning.Point.2012.DL.x264.GSN.part3.rar.htm
    
    RAPIDGATOR
    http://rapidgator.net/file/56047091/TNA.Turning.Point.2012.DL.x264.GSN.part1.rar.html
    http://rapidgator.net/file/56047301/TNA.Turning.Point.2012.DL.x264.GSN.part2.rar.html
    http://rapidgator.net/file/56047369/TNA.Turning.Point.2012.DL.x264.GSN.part3.rar.html
    
    TURBO
    http://turbobit.net/3o2gzlm6vb9i/TNA.Turning.Point.2012.DL.x264.GSN.part1.rar.html
    http://turbobit.net/cnjpxzy9z6fb/TNA.Turning.Point.2012.DL.x264.GSN.part2.rar.html
    http://turbobit.net/5if2o35u6g7f/TNA.Turning.Point.2012.DL.x264.GSN.part3.rar.html
    
    FILEMATES
    ..DOWN..

 

 

Posting Permissions

  • You may not post new threads
  • You may not post replies
  • You may not post attachments
  • You may not edit your posts
  •