Results 1 to 1 of 1
  1. #1
    dR Rockers www.desirulez.net
    Join Date
    Jun 2012
    Posts
    1,341

    Thumbs up Zero Bridge (2012) - 720p - DVDRip - x264 - AC3 - Esubs [DDR]

    Follow us on Social Media







    Zero Bridge (2012)
    **720p DVDRip x264 AC3 1/2DVDRip**




    [ NFO ]

    Code:
    Complete name                            : 720p-dvdrip-zerobridge-ddr.mkv
    Source					 : DDR
    Ripper					 : th3obr0
    
    Format                                   : Matroska
    Format version                           : Version 2
    File size                                : 2.18 GiB
    Duration                                 : 1h 37mn
    Overall bit rate                         : 3 196 Kbps
    Encoded date                             : UTC 2012-11-03 23:20:14
    Writing application                      : mkvmerge v5.7.0 ('The Whirlwind') built on Jul  8 2012 20:08:51
    Writing library                          : libebml v1.2.3 + libmatroska v1.3.0
    
    Video
    ID                                       : 1
    Format                                   : AVC
    Format/Info                              : Advanced Video Codec
    Format profile                           : [email protected]
    Format settings, CABAC                   : Yes
    Format settings, ReFrames                : 4 frames
    Codec ID                                 : V_MPEG4/ISO/AVC
    Duration                                 : 1h 37mn
    Bit rate                                 : 3 004 Kbps
    Width                                    : 1 280 pixels
    Height                                   : 720 pixels
    Display aspect ratio                     : 16:9
    Frame rate                               : 23.976 fps
    Color space                              : YUV
    Chroma subsampling                       : 4:2:0
    Bit depth                                : 8 bits
    Scan type                                : Progressive
    Bits/(Pixel*Frame)                       : 0.136
    Stream size                              : 2.00 GiB (92%)
    Title                                    : Zero Bridge y20p [DDR]
    Writing library                          : x264 core 125 r2200 999b753
    Language                                 : English
    Default                                  : Yes
    Forced                                   : No
    
    Audio
    ID                                       : 2
    Format                                   : AC-3
    Format/Info                              : Audio Coding 3
    Mode extension                           : CM (complete main)
    Format settings, Endianness              : Big
    Codec ID                                 : A_AC3
    Duration                                 : 1h 37mn
    Bit rate mode                            : Constant
    Bit rate                                 : 192 Kbps
    Channel(s)                               : 2 channels
    Channel positions                        : Front: L R
    Sampling rate                            : 48.0 KHz
    Bit depth                                : 16 bits
    Compression mode                         : Lossy
    Stream size                              : 134 MiB (6%)
    Title                                    : 5.1 [DDR]
    Default                                  : Yes
    Forced                                   : No
    [ SCREENS ]

















    Sample
    Code:
    http://mirrorstack.com/pm2om0r6x04q
    DownLoad

    Single Links
    Code:
    http://extabit.com/file/279qy1wsu8gv1/720p-dvdrip-zerobridge-ddr.mkv
    
    http://uploaded.net/file/m0nap1wm/720p-dvdrip-zerobridge-ddr.mkv
    
    http://rapidgator.net/file/54158385/720p-dvdrip-zerobridge-ddr.mkv.html
    NetLoad
    Code:
    http://netload.in/dateiV2GKvTpVVf/720p-dvdrip-zerobridge-ddr.mkv.001.htm
    http://netload.in/dateiRtth2E0b8M/720p-dvdrip-zerobridge-ddr.mkv.002.htm
    ExtaBit
    Code:
    http://extabit.com/file/279qy1wsymhot/720p-dvdrip-zerobridge-ddr.mkv.001
    http://extabit.com/file/279qy1wsu9itp/720p-dvdrip-zerobridge-ddr.mkv.002
    Uploaded.to
    Code:
    http://uploaded.net/file/rxry7ukw/720p-dvdrip-zerobridge-ddr.mkv.001
    http://uploaded.net/file/339bxvds/720p-dvdrip-zerobridge-ddr.mkv.002
    RapidGator
    Code:
    http://rapidgator.net/file/54159538/720p-dvdrip-zerobridge-ddr.mkv.001.html
    http://rapidgator.net/file/54158907/720p-dvdrip-zerobridge-ddr.mkv.002.html

 

 

Posting Permissions

  • You may not post new threads
  • You may not post replies
  • You may not post attachments
  • You may not edit your posts
  •