Results 1 to 1 of 1
  1. #1
    dR Rockers www.desirulez.net
    Join Date
    Jun 2012
    Posts
    1,341

    Thumbs up Zero Bridge (2012) - 1/3 DVDRip - XviD - AC3 - Esubs [DDR]

    Follow us on Social Media







    Zero Bridge (2012)
    **DVDRip XviD 1/3DVDRip**
    IMDB




    [ NFO ]

    Code:
    Complete name                            : 2cd-dvdrip-zerobridge-ddr.mkv
    Source					 : DDR
    Ripper					 : th3obr0
    
    Format                                   : AVI
    Format/Info                              : Audio Video Interleave
    File size                                : 1.45 GiB
    Duration                                 : 1h 37mn
    Overall bit rate                         : 2 128 Kbps
    Writing application                      : VirtualDubMod 1.5.10.2 (build 2540/release)
    Writing library                          : VirtualDubMod build 2540/release
    
    Video
    ID                                       : 0
    Format                                   : MPEG-4 Visual
    Format profile                           : Advanced [email protected]
    Format settings, BVOP                    : 2
    Format settings, QPel                    : No
    Format settings, GMC                     : No warppoints
    Format settings, Matrix                  : Default (MPEG)
    Codec ID                                 : XVID
    Codec ID/Hint                            : XviD
    Duration                                 : 1h 37mn
    Bit rate                                 : 1 926 Kbps
    Width                                    : 720 pixels
    Height                                   : 400 pixels
    Display aspect ratio                     : 16:9
    Frame rate                               : 23.976 fps
    Color space                              : YUV
    Chroma subsampling                       : 4:2:0
    Bit depth                                : 8 bits
    Scan type                                : Progressive
    Compression mode                         : Lossy
    Bits/(Pixel*Frame)                       : 0.279
    Stream size                              : 1.31 GiB (91%)
    Writing library                          : XviD 1.2.1 (UTC 2008-12-04)
    
    Audio
    ID                                       : 1
    Format                                   : AC-3
    Format/Info                              : Audio Coding 3
    Mode extension                           : CM (complete main)
    Format settings, Endianness              : Big
    Codec ID                                 : 2000
    Duration                                 : 1h 37mn
    Bit rate mode                            : Constant
    Bit rate                                 : 192 Kbps
    Channel(s)                               : 2 channels
    Channel positions                        : Front: L R
    Sampling rate                            : 48.0 KHz
    Bit depth                                : 16 bits
    Compression mode                         : Lossy
    Stream size                              : 134 MiB (9%)
    Alignment                                : Split accross interleaves
    Interleave, duration                     : 42 ms (1.00 video frame)
    Interleave, preload duration             : 500 ms
    [ SCREENS ]













    Sample
    Code:
    http://mirrorstack.com/hov9n78wmn0y
    DownLoad

    NetLoad
    Code:
    http://netload.in/dateioJxr571tCi/2cdrip-dvdrip-zerobridge-ddr.avi.htm
    ExtaBit
    Code:
    http://extabit.com/file/279qy1wsw4ib1/2cdrip-dvdrip-zerobridge-ddr.avi
    Uploaded.to
    Code:
    http://uploaded.net/file/hd0tf2bf/2cdrip-dvdrip-zerobridge-ddr.avi
    RapidGator
    Code:
    http://rapidgator.net/file/54155790/2cdrip-dvdrip-zerobridge-ddr.avi.html

 

 

Posting Permissions

  • You may not post new threads
  • You may not post replies
  • You may not post attachments
  • You may not edit your posts
  •