Results 1 to 1 of 1
  1. #1
    New Arrivals
    Join Date
    Oct 2012
    Posts
    5

    Default Heroine (2012).720p DVDRip X264 AC3 5.1 Audio ESubs - {ExD Exclusive}

    Follow us on Social Media



























    Rip Information

    Format : Matroska
    Format version : Version 2
    File size : 1.12 GiB
    Duration : 2h 30mn
    Overall bit rate : 1 068 Kbps
    Movie name : Heroine (2012).720p DVDRip X264 AC3 5.1 Audio ESubs - {ExD Exclusive}
    Encoded date : UTC 2012-10-31 14:04:51

    Video
    Codec ID : V_MPEG4/ISO/AVC
    Duration : 2h 30mn
    Bit rate : 843 Kbps
    Width : 1 280 pixels
    Height : 566 pixels
    Display aspect ratio : 2.25:1
    Frame rate mode : Constant
    Frame rate : 23.976 fps
    Color space : YUV
    Chroma subsampling : 4:2:0
    Bit depth : 8 bits
    Scan type : Progressive
    Bits/(Pixel*Frame) : 0.049
    Stream size : 883 MiB (77%)
    Title : [email protected]
    Writing library : x264 core 125 r2200 999b75
    Audio
    Codec ID : A_AC3
    Duration : 2h 30mn
    Bit rate mode : Constant
    Bit rate : 224 Kbps
    Channel(s) : 6 channels
    Channel positions : Front: L C R, Side: L R, LFE
    Sampling rate : 48.0 KHz
    Bit depth : 16 bits
    Compression mode : Lossy
    Stream size : 241 MiB (21%)
    Title : [email protected]
    Language : Hindi


    Heroine (2012) - IMDb


    ==Team EXD Exclusive==




    Code:
    [HIDE]http://extabit.com/file/2b3vaoukwoz13
    http://www.uploadcore.com/qggekbfbxbs1[/HIDE]
    [size=12pt]Subtitle[/size]

    Code:
    ]http://epicshare.net/jsqdcskub96t
    http://extabit.com/file/2b3vaoukw2rjb

 

 

Posting Permissions

  • You may not post new threads
  • You may not post replies
  • You may not post attachments
  • You may not edit your posts
  •