Results 1 to 1 of 1
  1. #1
    dR Rockers www.desirulez.net
    Join Date
    Aug 2011
    Posts
    5,859

    Cool Ajab Ghazab Love (2012) - 700MB - 1CDRip - DVDScr - XviD - deep1007

    Follow us on Social Media















    Code:
    ~ deep1007 ~
    General
    Complete name                            : Ajab Ghazab Love (2012) - DVDScr - XviD - [700mb] - deep1007.avi
    Format                                   : AVI
    Format/Info                              : Audio Video Interleave
    File size                                : 698 MiB
    Duration                                 : 1h 53mn
    Overall bit rate mode                    : Variable
    Overall bit rate                         : 857 Kbps
    
    Video
    ID                                       : 0
    Format                                   : MPEG-4 Visual
    Format profile                           : Advanced [email protected]
    Format settings, BVOP                    : 2
    Format settings, QPel                    : No
    Format settings, GMC                     : No warppoints
    Format settings, Matrix                  : Default (H.263)
    Codec ID                                 : XVID
    Codec ID/Hint                            : XviD
    Duration                                 : 1h 53mn
    Bit rate                                 : 754 Kbps
    Width                                    : 608 pixels
    Height                                   : 272 pixels
    Display aspect ratio                     : 2.25:1
    Frame rate                               : 23.976 fps
    Color space                              : YUV
    Chroma subsampling                       : 4:2:0
    Bit depth                                : 8 bits
    Scan type                                : Progressive
    Compression mode                         : Lossy
    Bits/(Pixel*Frame)                       : 0.190
    Stream size                              : 614 MiB (88%)
    Writing library                          : XviD 1.2.1 (UTC 2008-12-04)
    
    Audio
    ID                                       : 1
    Format                                   : MPEG Audio
    Format version                           : Version 1
    Format profile                           : Layer 3
    Mode                                     : Joint stereo
    Mode extension                           : MS Stereo
    Codec ID                                 : 55
    Codec ID/Hint                            : MP3
    Duration                                 : 1h 53mn
    Bit rate mode                            : Variable
    Bit rate                                 : 96.0 Kbps
    Channel(s)                               : 2 channels
    Sampling rate                            : 32.0 KHz
    Compression mode                         : Lossy
    Stream size                              : 75.5 MiB (11%)
    Alignment                                : Aligned on interleaves
    Interleave, duration                     : 36 ms (0.86 video frame)
    Interleave, preload duration             : 236 ms
    Title                                    : VTS_01_1 T80 2_0ch 192Kbps DELAY 0ms
    Writing library                          : LAME3.99r
    Encoding settings                        : -m j -V 4 -q 2 -lowpass 15.1 --abr 96





    SINGLE DIRECT FAST LINKS

    Code:
    http://extabit.com/file/2dubytxnxil1a/Ajab Ghazab Love (2012) - DVDScr - XviD - [700mb] - deep1007.avi

    Code:
    http://ryushare.com/aogxzbd60jdb/Ajab_Ghazab_Love_(2012)_-_DVDScr_-_XviD_-_[700mb]_-_deep1007.avi

 

 

Posting Permissions

  • You may not post new threads
  • You may not post replies
  • You may not post attachments
  • You may not edit your posts
  •