Results 1 to 1 of 1
  1. #1

    Default Chittagong (2012) - 1CD - DVDScr - XviD - AC3 [DDR]

    Follow us on Social Media







    Chittagong (2012)
    **DVDSCREENER XviD 1CDRip**




    [ iNFO ]

    Code:
    General
    Complete name                            : 1cd-dvddcr-chittagong-ddr.avi
    Ripper					 : th3obr0
    Source					 : DDR
    
    Format                                   : AVI
    Format/Info                              : Audio Video Interleave
    File size                                : 700 MiB
    Duration                                 : 1h 31mn
    Overall bit rate                         : 1 069 Kbps
    Writing application                      : VirtualDubMod 1.5.10.2 (build 2540/release)
    Writing library                          : VirtualDubMod build 2540/release
    
    Video
    ID                                       : 0
    Format                                   : MPEG-4 Visual
    Format profile                           : Advanced [email protected]
    Format settings, BVOP                    : 2
    Format settings, QPel                    : No
    Format settings, GMC                     : No warppoints
    Format settings, Matrix                  : Default (H.263)
    Codec ID                                 : XVID
    Codec ID/Hint                            : XviD
    Duration                                 : 1h 31mn
    Bit rate                                 : 868 Kbps
    Width                                    : 640 pixels
    Height                                   : 272 pixels
    Display aspect ratio                     : 2.35:1
    Frame rate                               : 23.976 fps
    Color space                              : YUV
    Chroma subsampling                       : 4:2:0
    Bit depth                                : 8 bits
    Scan type                                : Progressive
    Compression mode                         : Lossy
    Bits/(Pixel*Frame)                       : 0.208
    Stream size                              : 568 MiB (81%)
    Writing library                          : XviD 1.2.1 (UTC 2008-12-04)
    
    Audio
    ID                                       : 1
    Format                                   : AC-3
    Format/Info                              : Audio Coding 3
    Mode extension                           : CM (complete main)
    Format settings, Endianness              : Big
    Codec ID                                 : 2000
    Duration                                 : 1h 31mn
    Bit rate mode                            : Constant
    Bit rate                                 : 192 Kbps
    Channel(s)                               : 2 channels
    Channel positions                        : Front: L R
    Sampling rate                            : 48.0 KHz
    Bit depth                                : 16 bits
    Compression mode                         : Lossy
    Stream size                              : 126 MiB (18%)
    Alignment                                : Split accross interleaves
    Interleave, duration                     : 42 ms (1.00 video frame)
    Interleave, preload duration             : 500 ms
    [ SCREENS ]

















    [ SAMPLE ]

    Code:
    http://mirrorstack.com/uldt4pjs43qo
    [ NOTiCE ]

    1. Initial seeding is from a 100mbit line.

    2. All screens are taken from the this rip itself. None were taken from the AVS script.

    3. Don't be naughty! Do seed to help fellow members download this release.


    [ RIPPER'S NOTES ]

    >>Tests Performed<<
    - Audio In-Sync? O.K.
    - Subs In-Sync? N/A
    - Compatibility? VLC and MPC - O.K..

    > If you have any constructive criticism feel free to PM me.



    Single Resumable Links


    Code:
    http://www.ultramegabit.com/file/details/jHHJotPhQYI
    
    http://muchshare.net/wybgwwwlz6qd
    
    http://megaload.it/b6qxz2ugdyyq
    
    http://www.secureupload.eu/xkxdtiajvyfc/1cd-dvdscr-chittagong-ddr.avi

 

 

Posting Permissions

  • You may not post new threads
  • You may not post replies
  • You may not post attachments
  • You may not edit your posts
  •