Results 1 to 1 of 1
  1. #1
    dR Rockers www.desirulez.net
    Join Date
    Jun 2012
    Posts
    1,341

    Thumbs up Rush (2012) - 1/3 DVDScr - XviD [DDR]

    Follow us on Social Media







    Rush (2012)
    **DVDSCREENER XviD 1/3DVDRip**




    [ iNFO ]

    Code:
    General
    Complete name                            : dvddcr-rush-ddr.avi
    Ripper					 : th3obr0
    Source					 : DDR
    
    Format                                   : AVI
    Format/Info                              : Audio Video Interleave
    File size                                : 1.41 GiB
    Duration                                 : 1h 48mn
    Overall bit rate                         : 1 859 Kbps
    Writing application                      : VirtualDubMod 1.5.10.2 (build 2540/release)
    Writing library                          : VirtualDubMod build 2540/release
    
    Video
    ID                                       : 0
    Format                                   : MPEG-4 Visual
    Format profile                           : Advanced [email protected]
    Format settings, BVOP                    : 2
    Format settings, QPel                    : No
    Format settings, GMC                     : No warppoints
    Format settings, Matrix                  : Default (MPEG)
    Codec ID                                 : XVID
    Codec ID/Hint                            : XviD
    Duration                                 : 1h 48mn
    Bit rate                                 : 1 657 Kbps
    Width                                    : 720 pixels
    Height                                   : 320 pixels
    Display aspect ratio                     : 2.25:1
    Frame rate                               : 25.000 fps
    Color space                              : YUV
    Chroma subsampling                       : 4:2:0
    Bit depth                                : 8 bits
    Scan type                                : Progressive
    Compression mode                         : Lossy
    Bits/(Pixel*Frame)                       : 0.288
    Stream size                              : 1.26 GiB (89%)
    Writing library                          : XviD 1.2.1 (UTC 2008-12-04)
    
    Audio
    ID                                       : 1
    Format                                   : MPEG Audio
    Format version                           : Version 1
    Format profile                           : Layer 3
    Mode                                     : Joint stereo
    Mode extension                           : MS Stereo
    Codec ID                                 : 55
    Codec ID/Hint                            : MP3
    Duration                                 : 1h 48mn
    Bit rate mode                            : Constant
    Bit rate                                 : 192 Kbps
    Channel(s)                               : 2 channels
    Sampling rate                            : 48.0 KHz
    Compression mode                         : Lossy
    Stream size                              : 150 MiB (10%)
    Alignment                                : Aligned on interleaves
    Interleave, duration                     : 40 ms (1.00 video frame)
    Interleave, preload duration             : 504 ms
    Writing library                          : LAME3.99r
    Encoding settings                        : -m j -V 4 -q 2 -lowpass 18.6 -b 192
    [ SCREENS ]



















    Sample
    Code:
    http://mirrorstack.com/wsxudy7y0cso
    DownLoad

    NetLoad
    Code:
    http://netload.in/datei272480uKdY/dvdscr-rush-ddr.avi.htm
    ExtaBit
    Code:
    http://extabit.com/file/279r4ghsvprr0/dvdscr-rush-ddr.avi
    Uploaded.to
    Code:
    http://uploaded.net/file/1agv022p/dvdscr-rush-ddr.avi
    RapidGator
    Code:
    http://rapidgator.net/file/53034822/dvdscr-rush-ddr.avi.html

 

 

Posting Permissions

  • You may not post new threads
  • You may not post replies
  • You may not post attachments
  • You may not edit your posts
  •