Results 1 to 1 of 1
  1. #1
    Senior Member www.desirulez.net
    Join Date
    Oct 2012
    Posts
    91

    Default WWE.Hell.in.a.Cell.2012.PPV.HDTV.x264-Anon

    Follow us on Social Media





    WWE.Hell.in.a.Cell.2012.PPV.HDTV.x264-Anon



    Code:
    Video
    ID                                      : 2
    Format                                  : AVC
    Format/Info                              : Advanced Video Codec
    Format profile                          : [email protected]
    Format settings, CABAC                  : No
    Format settings, ReFrames                : 3 frames
    Codec ID                                : avc1
    Codec ID/Info                            : Advanced Video Coding
    Duration                                : 2h 52mn
    Bit rate mode                            : Constant
    Bit rate                                : 1 200 Kbps
    Width                                    : 624 pixels
    Height                                  : 352 pixels
    Display aspect ratio                    : 16:9
    Frame rate mode                          : Variable
    Frame rate                              : 24.873 fps
    Original frame rate                      : 25.000 fps
    Minimum frame rate                      : 3.559 fps
    Maximum frame rate                      : 33.333 fps
    Standard                                : NTSC
    Color space                              : YUV
    Chroma subsampling                      : 4:2:0
    Bit depth                                : 8 bits
    Scan type                                : Progressive
    Bits/(Pixel*Frame)                      : 0.220
    Stream size                              : 1.44 GiB (90%)
    Title                                    : WowzaMediaServerPro
    Language                                : English
    
    Audio
    ID                                      : 1
    Format                                  : MPEG Audio
    Format version                          : Version 1
    Format profile                          : Layer 3
    Mode                                    : Joint stereo
    Mode extension                          : MS Stereo
    Codec ID                                : .mp3
    Duration                                : 2h 52mn
    Bit rate mode                            : Constant
    Bit rate                                : 128 Kbps
    Channel(s)                              : 2 channels
    Sampling rate                            : 44.1 KHz
    Compression mode                        : Lossy
    Stream size                              : 158 MiB (10%)
    Title                                    : WowzaMediaServerPro
    Language                                : English
    Code:
    http://ul.to/jp9fiehx/WWE.Hell.in.a.Cell.2012.PPV.HDTV.x264-Anon.mp4
    
    http://rapidgator.net/file/53022115/WWE.Hell.in.a.Cell.2012.PPV.HDTV.x264-Anon.mp4.html
    
    http://turbobit.net/2p9hg9hbd5ii/WWE.Hell.in.a.Cell.2012.PPV.HDTV.x264-Anon.mp4.html
    
    http://letitbit.net/download/22356.2f41ebbd9d7a53bb65af9410c4ae/WWE.Hell.in.a.Cell.2012.PPV.HDTV.x264-Anon.mp4.html
    Code:
    http://letitbit.net/download/57822.51cb81336b53df0eb15d1ddb33dc/WWE.Hell.in.a.Cell.2012.PPV.HDTV.x264-Anon.part1.rar.html
    http://letitbit.net/download/47725.4f56ccdbc1b7eb79a1ebe3c3223e/WWE.Hell.in.a.Cell.2012.PPV.HDTV.x264-Anon.part2.rar.html
    
    http://rapidgator.net/file/53022017/WWE.Hell.in.a.Cell.2012.PPV.HDTV.x264-Anon.part1.rar.html
    http://rapidgator.net/file/53021996/WWE.Hell.in.a.Cell.2012.PPV.HDTV.x264-Anon.part2.rar.html
    
    http://ul.to/2p9a3vmz/WWE.Hell.in.a.Cell.2012.PPV.HDTV.x264-Anon.part1.rar
    http://ul.to/b516da3m/WWE.Hell.in.a.Cell.2012.PPV.HDTV.x264-Anon.part2.rar

 

 

Posting Permissions

  • You may not post new threads
  • You may not post replies
  • You may not post attachments
  • You may not edit your posts
  •