Results 1 to 1 of 1
  1. #1
    dR Rockers www.desirulez.net
    Join Date
    Aug 2011
    Posts
    5,859

    Cool Mar Mitenge (2011) - BRrip - 720p - Hindi -=Abdullah=-

    Follow us on Social Media













    Code:
    Format                                   : Matroska
    Format version                           : Version 2
    File size                                : 1.13 GiB
    Duration                                 : 2h 42mn
    Overall bit rate                         : 1 000 Kbps
    Encoded date                             : UTC 2012-10-27 08:34:32
    Writing application                      : mkvmerge v4.9.1 ('Ich will') built on Jul 11 2011 23:53:15
    Writing library                          : libebml v1.2.1 + libmatroska v1.1.1
    
    Video
    ID                                       : 1
    Format                                   : AVC
    Format/Info                              : Advanced Video Codec
    Format profile                           : [email protected]
    Format settings, CABAC                   : Yes
    Format settings, ReFrames                : 9 frames
    Muxing mode                              : Header stripping
    Codec ID                                 : V_MPEG4/ISO/AVC
    Duration                                 : 2h 42mn
    Bit rate                                 : 871 Kbps
    Width                                    : 1 280 pixels
    Height                                   : 544 pixels
    Display aspect ratio                     : 2.35:1
    Frame rate                               : 24.000 fps
    Color space                              : YUV
    Chroma subsampling                       : 4:2:0
    Bit depth                                : 8 bits
    Scan type                                : Progressive
    Bits/(Pixel*Frame)                       : 0.052
    Stream size                              : 988 MiB (85%)
    Title                                    : Mar Mitenge 2011 BRrip 720p Hindi =Abdullah=TDT
    
    
    Format                                   : MPEG Audio
    Format version                           : Version 1
    Format profile                           : Layer 2
    Muxing mode                              : Header stripping
    Codec ID                                 : A_MPEG/L2
    Codec ID/Hint                            : MP2
    Duration                                 : 2h 42mn
    Bit rate mode                            : Constant
    Bit rate                                 : 128 Kbps
    Channel(s)                               : 2 channels
    Sampling rate                            : 48.0 KHz
    Compression mode                         : Lossy
    Stream size                              : 148 MiB (13%)
    Title                                    : =Abdullah=TDT
    Language                                 : Hindi
    Default                                  : Yes
    Forced                                   : No
    
    Text
    ID                                       : 3
    Format                                   : UTF-8
    Codec ID                                 : S_TEXT/UTF8
    Codec ID/Info                            : UTF-8 Plain Text
    Title                                    : =Abdullah=TDT
    Language                                 : English
    Default                                  : Yes
    Forced                                   : No







    [IMG]http://i.imgur.com/MfsCP.png[/IM


    This Movie is First On Net. Hindi Audio is Original.
    All The Credits Goes To Me




    SINGLE DIRECT FAST LINKS


    Code:
    http://extabit.com/file/2dubyvpjbofha/Mar Mitenge 2011 BRrip 720p Hindi =Abdullah=TDT.mkv

    Code:
    http://ryushare.com/1d31dd1aaa12/Mar_Mitenge_2011_BRrip_720p_Hindi_=Abdullah=TDT.mkv

 

 

Posting Permissions

  • You may not post new threads
  • You may not post replies
  • You may not post attachments
  • You may not edit your posts
  •