Results 1 to 1 of 1
  1. #1
    dR Rockers www.desirulez.net
    Join Date
    Aug 2011
    Posts
    5,859

    Cool Bol Bachchan (2012) - 720p - BDRip- x264 - ESubs - DesiRippers

    Follow us on Social Media














    Code:
    Format                                   : Matroska
    Format version                           : Version 2
    File size                                : 2.20 GiB
    Duration                                 : 2h 29mn
    Overall bit rate                         : 2 103 Kbps
    Encoded date                             : UTC 2012-10-25 10:38:19
    Writing application                      : mkvmerge v5.6.0 ('Kenya Kane') built on May 27 2012 16:44:04
    Writing library                          : libebml v1.2.3 + libmatroska v1.3.0
    
    Video
    ID                                       : 1
    Format                                   : AVC
    Format/Info                              : Advanced Video Codec
    Format profile                           : [email protected]
    Format settings, CABAC                   : Yes
    Format settings, ReFrames                : 4 frames
    Codec ID                                 : V_MPEG4/ISO/AVC
    Duration                                 : 2h 29mn
    Bit rate                                 : 1 653 Kbps
    Width                                    : 1 280 pixels
    Height                                   : 544 pixels
    Display aspect ratio                     : 2.35:1
    Frame rate mode                          : Constant
    Frame rate                               : 24.000 fps
    Color space                              : YUV
    Chroma subsampling                       : 4:2:0
    Bit depth                                : 8 bits
    Scan type                                : Progressive
    Bits/(Pixel*Frame)                       : 0.099
    Stream size                              : 1.69 GiB (77%)
    Writing library                          : x264 core 125 r2200 999b753
    Encoding  settings                        : cabac=1 / ref=2 / deblock=1:0:0 /  analyse=0x3:0x113 / me=hex / subme=6 / psy=1 / psy_rd=1.00:0.00 /  mixed_ref=1 / me_range=16 / chroma_me=1 / trellis=1 / 8x8dct=1 / cqm=0 /  deadzone=21,11 / fast_pskip=1 / chroma_qp_offset=-2 / threads=6 /  lookahead_threads=1 / sliced_threads=0 / nr=0 / decimate=1 /  interlaced=0 / bluray_compat=0 / constrained_intra=0 / bframes=3 /  b_pyramid=2 / b_adapt=1 / b_bias=0 / direct=1 / weightb=1 / open_gop=0 /  weightp=1 / keyint=240 / keyint_min=24 / scenecut=40 / intra_refresh=0 /  rc_lookahead=30 / rc=2pass / mbtree=1 / bitrate=1653 / ratetol=1.0 /  qcomp=0.60 / qpmin=0 / qpmax=69 / qpstep=4 / cplxblur=20.0 / qblur=0.5 /  ip_ratio=1.40 / aq=1:1.00
    Language                                 : English
    Default                                  : Yes
    Forced                                   : No
    
    Audio
    ID                                       : 2
    Format                                   : AC-3
    Format/Info                              : Audio Coding 3
    Mode extension                           : CM (complete main)
    Format settings, Endianness              : Big
    Codec ID                                 : A_AC3
    Duration                                 : 2h 29mn
    Bit rate mode                            : Constant
    Bit rate                                 : 448 Kbps
    Channel(s)                               : 6 channels
    Channel positions                        : Front: L C R, Side: L R, LFE
    Sampling rate                            : 48.0 KHz
    Bit depth                                : 16 bits
    Compression mode                         : Lossy
    Stream size                              : 479 MiB (21%)
    Default                                  : Yes
    Forced                                   : No
    
    Source : BD50 @ DRs
    Special Thanx To team DRs







    SINGLE DIRECT FAST LINKS


    Code:
    http://extabit.com/file/2dubyusa9qesm/Bol.Bachcha. (2012).720p.BDRip.x264.ESubs.DesiRippers.mkv
    Code:
    http://ryushare.com/1c4908759bb1/Bol.Bachcha._(2012).720p.BDRip.x264.ESubs.DesiRippers.mkv


    1GB LINKS



    Code:
    http://extabit.com/file/2dubyusaadi1i/Bol.Bachcha. (2012).720p.BDRip.x264.ESubs.DesiRippers.mkv.001
    http://extabit.com/file/2dubyusaadl9i/Bol.Bachcha. (2012).720p.BDRip.x264.ESubs.DesiRippers.mkv.002
    http://extabit.com/file/2dubyusaadl5i/Bol.Bachcha. (2012).720p.BDRip.x264.ESubs.DesiRippers.mkv.003
    http://extabit.com/file/2dubyusaadl8m/Bol.Bachcha. (2012).720p.BDRip.x264.ESubs.DesiRippers.mkv.004
    http://extabit.com/file/2dubyusaadody/Bol.Bachcha. (2012).720p.BDRip.x264.ESubs.DesiRippers.mkv.005


    Code:
    http://ryushare.com/1e1ab1bfbb89/Bol.Bachcha._(2012).720p.BDRip.x264.ESubs.DesiRippers.mkv.001
    http://ryushare.com/1f038664c824/Bol.Bachcha._(2012).720p.BDRip.x264.ESubs.DesiRippers.mkv.002
    http://ryushare.com/1e1ab1bfbb8a/Bol.Bachcha._(2012).720p.BDRip.x264.ESubs.DesiRippers.mkv.003
    http://ryushare.com/20d52faee934/Bol.Bachcha._(2012).720p.BDRip.x264.ESubs.DesiRippers.mkv.004
    http://ryushare.com/1c4908759bae/Bol.Bachcha._(2012).720p.BDRip.x264.ESubs.DesiRippers.mkv.005

 

 

Posting Permissions

  • You may not post new threads
  • You may not post replies
  • You may not post attachments
  • You may not edit your posts
  •