Results 1 to 1 of 1
  1. #1
    dR Contributor www.desirulez.net
    Join Date
    Aug 2011
    Posts
    1,847

    Post Kismet Love Paisa Dilli (2012) (New Source) DvDscr x264 [Team EXD]

    Follow us on Social Media






    Kismet Love Paisa Dilli (2012) (New Source) DvDscr x264 [Team EXD] Free Watch Online Mediafire Sendspace Rapidshare Jumbofiles Extabit ShareBeast 180upload ZippyShare RapidGator Netload Single links resume mkv format Free download full movies Small Size, High Quality.

    Code:
    Format : Matroska
    File size : 767 MiB
    Duration : 2h 19mn
    Overall bit rate : 769 Kbps
    
    
    Video
    Duration : 2h 19mn
    Bit rate : 658 Kbps
    Width : 688 pixels
    Height : 272 pixels
    Display aspect ratio : 2.529
    Frame rate mode : Variable
    Frame rate : 29.970 fps
    Color space : YUV
    Chroma subsampling : 4:2:0
    Bit depth : 8 bits
    Scan type : Progressive
    Bits/(Pixel*Frame) : 0.117
    Stream size : 656 MiB (86%)
    
    
    Audio
    ID : 1
    Format : MPEG Audio
    Format version : Version 1
    Format profile : Layer 3
    Mode : Joint stereo
    Mode extension : MS Stereo
    Muxing mode : Header stripping
    Codec ID : A_MPEG/L3
    Codec ID/Hint : MP3
    Duration : 2h 19mn
    Bit rate mode : Constant
    Bit rate : 96.0 Kbps
    Channel(s) : 2 channels
    Sampling rate : 32.0 KHz
    Compression mode : Lossy
    Stream size : 95.7 MiB (12%)
    Writing library : LAME3.99r
    Encoding settings : -m j -V 4 -q 2 -lowpass 15.1 -b 96








    Resume Support Link ( Like Mediafire [ Test It Then Comment It ] )

    Code:
    http://coraldrive.net/7o6yv9tdtgpf/Kismet_Love_Paisa_Dilli_-_2012__New_Source__DvDscr_x264_Team_EXD__John_Rip_.mkv

 

 

Posting Permissions

  • You may not post new threads
  • You may not post replies
  • You may not post attachments
  • You may not edit your posts
  •