Results 1 to 1 of 1
  1. #1
    dR Contributor www.desirulez.net
    Join Date
    Aug 2011
    Posts
    1,847

    Post Rush (2012) SCAM 1CD 678MB MPEG-PS

    Follow us on Social Media






    Rush (2012) SCAM 1CD 678MB MPEG-PS Free Watch Online Mediafire Sendspace Rapidshare Jumbofiles Extabit ShareBeast 180upload ZippyShare RapidGator Netload Single links resume mkv format Free download full movies Small Size, High Quality.

    Code:
    Format                                   : MPEG-PS
    File size                                : 678 MiB
    Duration                                 : 1h 52mn
    Overall bit rate                         : 839 Kbps
    
    Video
    ID                                       : 224 (0xE0)
    Format                                   : MPEG Video
    Format version                           : Version 1
    Format settings, BVOP                    : Yes
    Format settings, Matrix                  : Custom
    Duration                                 : 1h 52mn
    Bit rate mode                            : Variable
    Bit rate                                 : 759 Kbps
    Maximum bit rate                         : 763 Kbps
    Width                                    : 352 pixels
    Height                                   : 288 pixels
    Display aspect ratio                     : 4:3
    Frame rate                               : 25.000 fps
    Standard                                 : PAL
    Color space                              : YUV
    Bit depth                                : 8 bits
    Scan type                                : Progressive
    Compression mode                         : Lossy
    Bits/(Pixel*Frame)                       : 0.299
    Stream size                              : 613 MiB (90%)
    
    
    Audio
    ID                                       : 192 (0xC0)
    Format                                   : MPEG Audio
    Format version                           : Version 1
    Format profile                           : Layer 2
    Duration                                 : 1h 52mn
    Bit rate mode                            : Constant
    Bit rate                                 : 64.0 Kbps
    Channel(s)                               : 2 channels
    Sampling rate                            : 48.0 KHz
    Compression mode                         : Lossy
    Stream size                              : 51.7 MiB (8%)
    
    
    Source :DDD


    Resume Support Link ( Like Mediafire [ Test It Then Comment It ] )

    Code:
    http://coraldrive.net/x1mdia37i2ox/Rush.Scam.www.amaderforum.com.mpg


 

 

Posting Permissions

  • You may not post new threads
  • You may not post replies
  • You may not post attachments
  • You may not edit your posts
  •