Results 1 to 2 of 2
  1. #1
    dR Rockers www.desirulez.net
    Join Date
    Jun 2011
    Posts
    2,793

    Thumbs up Sirphire (2012) Punjabi 1CD DVDRip x264 AC3 By [email protected] mkv 700mb

    Follow us on Social Media










    Rip Information

    Format : Matroska
    Format version : Version 2
    File size : 697 MiB
    Duration : 2h 5mn
    Overall bit rate : 778 Kbps

    Video

    Codec ID : V_MPEG4/ISO/AVC
    Duration : 2h 5mn
    Bit rate : 649 Kbps
    Width : 720 pixels
    Height : 310 pixels
    Display aspect ratio : 2.35:1
    Frame rate : 29.970 fps
    Color space : YUV
    Chroma subsampling : 4:2:0
    Bit depth : 8 bits
    Scan type : Progressive
    Bits/(Pixel*Frame) : 0.097
    Stream size : 568 MiB (82%)
    Title : [email protected]



    Audio

    Codec ID : A_AC3
    Duration : 2h 5mn
    Bit rate mode : Constant
    Bit rate : 128 Kbps
    Channel(s) : 2 channels
    Channel positions : Front: L R
    Sampling rate : 48.0 KHz
    Bit depth : 16 bits
    Compression mode : Lossy
    Stream size : 115 MiB (16%)
    Title : [email protected]
    Language : Panjabi
    Default : Yes














    DOWNLOAD LINKS

    (Resume Supported for Free Users)

    Code:
    http://fileuplo.de/v51o0romoe57.html
    
    OR
    
    http://www.queenshare.com/upwa2uagl7zd


  2. #2
    Hot Member www.desirulez.net
    Join Date
    Jul 2012
    Location
    My Home :P
    Posts
    1,408

    Default

    dR Boss is back babyy

 

 

Posting Permissions

  • You may not post new threads
  • You may not post replies
  • You may not post attachments
  • You may not edit your posts
  •