Results 1 to 1 of 1
  1. #1
    dR Rockers www.desirulez.net
    Join Date
    Aug 2011
    Posts
    5,859

    Cool Bhoot Returns (2012) - DVDSCREENER - XviD - AC3 - 1CDRip - [DDR]

    Follow us on Social Media













    Code:
    General
    Complete name                            : 1cd-dvddcr-bhootreturns-ddr.avi
    Ripper                     : th3obr0
    Source                     : DDR
    
    Format                                   : AVI
    Format/Info                              : Audio Video Interleave
    File size                                : 700 MiB
    Duration                                 : 1h 24mn
    Overall bit rate                         : 1 157 Kbps
    Writing application                      : VirtualDubMod 1.5.10.2 (build 2540/release)
    Writing library                          : VirtualDubMod build 2540/release
    
    Video
    ID                                       : 0
    Format                                   : MPEG-4 Visual
    Format profile                           : Advanced [email protected]
    Format settings, BVOP                    : 2
    Format settings, QPel                    : No
    Format settings, GMC                     : No warppoints
    Format settings, Matrix                  : Default (H.263)
    Codec ID                                 : XVID
    Codec ID/Hint                            : XviD
    Duration                                 : 1h 24mn
    Bit rate                                 : 956 Kbps
    Width                                    : 640 pixels
    Height                                   : 288 pixels
    Display aspect ratio                     : 2.222
    Frame rate                               : 23.976 fps
    Color space                              : YUV
    Chroma subsampling                       : 4:2:0
    Bit depth                                : 8 bits
    Scan type                                : Progressive
    Compression mode                         : Lossy
    Bits/(Pixel*Frame)                       : 0.216
    Stream size                              : 578 MiB (83%)
    Writing library                          : XviD 1.2.1 (UTC 2008-12-04)
    
    Audio
    ID                                       : 1
    Format                                   : AC-3
    Format/Info                              : Audio Coding 3
    Mode extension                           : CM (complete main)
    Format settings, Endianness              : Big
    Codec ID                                 : 2000
    Duration                                 : 1h 24mn
    Bit rate mode                            : Constant
    Bit rate                                 : 192 Kbps
    Channel(s)                               : 2 channels
    Channel positions                        : Front: L R
    Sampling rate                            : 48.0 KHz
    Bit depth                                : 16 bits
    Compression mode                         : Lossy
    Stream size                              : 116 MiB (17%)
    Alignment                                : Split accross interleaves
    Interleave, duration                     : 42 ms (1.00 video frame)
    Interleave, preload duration             : 500 ms


























    [ NOTiCE ]



    All screens are taken from the this rip itself. None were taken from the AVS script.


    [ RIPPER'S NOTES ]

    >>Tests Performed<<
    - Audio In-Sync? O.K.
    - Subs In-Sync? N/A
    - Compatibility? VLC and MPC - O.K..





    SINGLE DIRECT FAST LINKS


    Code:
    http://extabit.com/file/2dubyutn4zwfq/1cd-dvddcr-bhootreturns.ddr.avi

    Code:
    http://ryushare.com/1c4908759a97/1cd-dvddcr-bhootreturns.ddr.avi


 

 

Posting Permissions

  • You may not post new threads
  • You may not post replies
  • You may not post attachments
  • You may not edit your posts
  •