Results 1 to 1 of 1
  1. #1
    dR Rockers www.desirulez.net
    Join Date
    Aug 2011
    Posts
    5,859

    Cool From Sydeny With Love (2012) - 700MB - 1CDRip - HDScam - XviD - ICTV

    Follow us on Social Media













    Code:
    From Sydeny With Love 2012
    
    
    Format                                   : AVI
    Format/Info                              : Audio Video Interleave
    File size                                : 697 MiB
    Duration                                 : 2h 13mn
    Overall bit rate mode                    : Variable
    Overall bit rate                         : 729 Kbps
    
    Video
    ID                                       : 0
    Format                                   : MPEG-4 Visual
    Format profile                           : Advanced [email protected]
    Format settings, BVOP                    : 2
    Format settings, QPel                    : No
    Format settings, GMC                     : No warppoints
    Format settings, Matrix                  : Default (H.263)
    Codec ID                                 : XVID
    Codec ID/Hint                            : XviD
    Duration                                 : 2h 13mn
    Bit rate                                 : 625 Kbps
    Width                                    : 592 pixels
    Height                                   : 256 pixels
    Display aspect ratio                     : 2.35:1
    Frame rate                               : 25.000 fps
    Color space                              : YUV
    Chroma subsampling                       : 4:2:0
    Bit depth                                : 8 bits
    Scan type                                : Progressive
    Compression mode                         : Lossy
    Bits/(Pixel*Frame)                       : 0.165
    Stream size                              : 598 MiB (86%)
    Writing library                          : XviD 1.2.1 
    
    Audio
    ID                                       : 1
    Format                                   : MPEG Audio
    Format version                           : Version 1
    Format profile                           : Layer 3
    Mode                                     : Joint stereo
    Codec ID                                 : 55
    Codec ID/Hint                            : MP3
    Duration                                 : 2h 13mn
    Bit rate mode                            : Variable
    Bit rate                                 : 96.0 Kbps
    Channel(s)                               : 2 channels
    Sampling rate                            : 32.0 KHz
    Compression mode                         : Lossy
    Stream size                              : 89.3 MiB (13%)
    Alignment                                : Aligned on interleaves
    Interleave, duration                     : 36 ms (0.90 video frame)
    Interleave, preload duration             : 265 ms
    Title                                    : Frm sysdney with love Tc0 L2 2ch 48 128 DELAY 0ms
    Writing library                          : LAME3.99r
    Encoding settings                        : -m j -V 4 -q 2 -lowpass 15.1 --abr 96







    SINGLE DIRECT FAST LINKS


    Code:
    http://extabit.com/file/2dubywl0glue6/From Sydeny With Love 2012 HDScam Xvid.avi

    Code:
    http://ryushare.com/45366978bcba/From_Sydeny_With_Love_2012_HDScam_Xvid.avi

 

 

Posting Permissions

  • You may not post new threads
  • You may not post replies
  • You may not post attachments
  • You may not edit your posts
  •