Results 1 to 1 of 1
  1. #1

    Post Hindustani Yoddha (2011) HDRIp. Hindi-Telgu. 782MB-AbdullaH

    Follow us on Social Media





    Hindustani Yoddha (2011) HDRIp. Hindi-Telgu. 782MB-AbdullaH




    Code:
    Format                                  : Matroska
    Format version                          : Version 2
    File size                               : 783 MiB
    Duration                                : 2h 9mn
    Overall bit rate                        : 844 Kbps
    Codec ID                                : XVID
    Codec ID/Hint                           : XviD
    Duration                                : 2h 9mn
    Bit rate                                : 636 Kbps
    Width                                   : 608 pixels
    Height                                  : 272 pixels
    Display aspect ratio                    : 2.25:1
    Frame rate                              : 25.000 fps
    
    
    Audio #1
    ID                                      : 2
    Format                                  : MPEG Audio
    Format version                          : Version 1
    Format profile                          : Layer 3
    Mode                                    : Joint stereo
    Mode extension                          : MS Stereo
    Muxing mode                             : Header stripping
    Codec ID                                : A_MPEG/L3
    Codec ID/Hint                           : MP3
    Duration                                : 2h 9mn
    Bit rate mode                           : Constant
    Bit rate                                : 96.0 Kbps
    Channel(s)                              : 2 channels
    Sampling rate                           : 32.0 KHz
    Compression mode                        : Lossy
    Stream size                             : 89.0 MiB (11%)
    Title                                   : =AbdullaH={TDT}
    Writing library                         : LAME3.99r
    Encoding settings                       : -m j -V 4 -q 2 -lowpass 15.1 -b 96
    Language                                : Telugu
    Default                                 : No
    Forced                                  : No
    
    Audio #2
    ID                                      : 3
    Format                                  : MPEG Audio
    Format version                          : Version 1
    Format profile                          : Layer 2
    Muxing mode                             : Header stripping
    Codec ID                                : A_MPEG/L2
    Codec ID/Hint                           : MP2
    Duration                                : 2h 9mn
    Bit rate mode                           : Constant
    Bit rate                                : 96.0 Kbps
    Channel(s)                              : 2 channels
    Sampling rate                           : 48.0 KHz
    Compression mode                        : Lossy
    Stream size                             : 89.0 MiB (11%)
    Title                                   : =AbdullaH={TDT}
    Language                                : Hindi













    [CODE
    Бесплатный файлообменник TurboBit.net — обмен файлами до 100 Гб, бесплатный хостинг файлов Yoddha (2011) HDRIp Hindi-Telgu.mkv.html
    [/CODE]
    Password:
    Code:
    bingving.com

 

 

Posting Permissions

  • You may not post new threads
  • You may not post replies
  • You may not post attachments
  • You may not edit your posts
  •