Results 1 to 1 of 1
  1. #1
    Super Member www.desirulez.net
    Join Date
    Jan 2012
    Posts
    408

    Thumbs up Student Of The Year - 2012 (Audio Cleaned) - SCam Rip - MPEG-PS.VOB

    Follow us on Social Media










    Code:
    http://ultramegabit.com/file/details/XiUcDtvm48g
    
    http://turbobit.net/t8kitdkc6tg5.html
    
    http://www.secureupload.eu/78okzgstxo08/soy.VOB
    
    http://www.HenchFile.com/1te5wnk88yky
    
    http://www.filedownloads.org/cnepcnxuyk2f/soy.VOB.html
    Code:
    General
    Format : MPEG-PS
    File size : 711 MiB
    Duration : 2h 6mn
    Overall bit rate mode : Variable
    Overall bit rate : 789 Kbps
    Video #224
    ID : 224 (0xE0)
    Format : MPEG Video
    Format version : Version 2
    Format profile : [email protected]
    Format settings, BVOP : Yes
    Format settings, Matrix : Default
    Duration : 2h 6mn
    Bit rate mode : Variable
    Bit rate : 645 Kbps
    Maximum bit rate : 9 672 Kbps
    Width : 352 pixels
    Height : 288 pixels
    Display aspect ratio : 4:3
    Frame rate : 25.000 fps
    Standard : PAL
    Color space : YUV
    Chroma subsampling : 4:2:0
    Bit depth : 8 bits
    Scan type : Progressive
    Compression mode : Lossy
    Bits/(Pixel*Frame) : 0.255
    Stream size : 581 MiB (82%)
    
    Audio #192
    ID : 192 (0xC0)
    Format : MPEG Audio
    Format version : Version 1
    Format profile : Layer 2
    Duration : 2h 6mn
    Bit rate mode : Constant
    Bit rate : 128 Kbps
    Channel(s) : 2 channels
    Sampling rate : 48.0 KHz
    Compression mode : Lossy
    Stream size : 115 MiB (16%)
    Last edited by diehardposts; 10-20-2012 at 12:47 AM.

 

 

Posting Permissions

  • You may not post new threads
  • You may not post replies
  • You may not post attachments
  • You may not edit your posts
  •