Results 1 to 1 of 1
  1. #1

    Thumbs up Delhi Safari (2012) S Cam Rip- Mpg - Team Ictv

    Follow us on Social Media





    Delhi Safari (2012) S Cam Rip- Mpg - Team Ictv





    Code:
    General
    Complete name: Delhi.Safari.Scam.550MB.MPG
    Format : MPEG-PS
    File size: 553 MiB
    Duration : 1h 23mn
    Overall bit rate mode: Variable
    Overall bit rate : 925 Kbps
    
    Video
    ID : 224 (0xE0)
    Format : MPEG Video
    Format version : Version 2
    Format profile : [email protected]
    Format settings, BVOP: Yes
    Format settings, Matrix: Default
    Format settings, GOP : M=3, N=12
    Duration : 1h 23mn
    Bit rate mode: Variable
    Bit rate : 779 Kbps
    Maximum bit rate : 800 Kbps
    Width: 352 pixels
    Height : 288 pixels
    Display aspect ratio : 4:3
    Frame rate : 25.000 fps
    Standard : PAL
    Color space: YUV
    Chroma subsampling : 4:2:0
    Bit depth: 8 bits
    Scan type: Progressive
    Compression mode : Lossy
    Bits/(Pixel*Frame) : 0.307
    Stream size: 466 MiB (84%)
    
    Audio
    ID : 192 (0xC0)
    Format : MPEG Audio
    Format version : Version 1
    Format profile : Layer 2
    Duration : 1h 23mn
    Bit rate mode: Constant
    Bit rate : 128 Kbps
    Channel(s) : 2 channels
    Sampling rate: 44.1 KHz
    Compression mode : Lossy
    Stream size: 76.6 MiB (14%)
    Code:
    http://ultramegabit.com/file/details/cRp0UlstNxI
    OR
    http://extabit.com/file/29zrafvytgrj7
    OR
    http://fileuplo.de/renoug9qa409.html
    OR
    http://turbobit.net/oxvwmnq2qlfz.html


    Last edited by BigBoss2011; 10-19-2012 at 10:13 PM.

 

 

Posting Permissions

  • You may not post new threads
  • You may not post replies
  • You may not post attachments
  • You may not edit your posts
  •