Results 1 to 1 of 1
  1. #1
    Super Member www.desirulez.net
    Join Date
    Aug 2012
    Posts
    211

    Default Aaiyaa (2012) 1/5 MC DVDScr x264 AC3 935MB Team EXD

    Follow us on Social Media





    Aaiyaa (2012) 1/5 MC DVDScr x264 AC3 935MB Team EXD



    Code:
    Format : Matroska
    File size : 935 MiB
    Duration : 2h 29mn
    Overall bit rate : 876 Kbps
    
    
    Video
    ID : 1
    Format : MPEG-4 Visual
    Format profile : Advanced [email protected]
    Format settings, BVOP : Yes
    Format settings, QPel : No
    Format settings, GMC : No warppoints
    Format settings, Matrix : Default (H.263)
    Codec ID : XVID
    Codec ID/Hint : XviD
    Duration : 2h 29mn
    Bit rate : 731 Kbps
    Width : 672 pixels
    Height : 304 pixels
    Display aspect ratio : 2.2:1
    Frame rate : 19.181 fps
    Original frame rate : 19.185 fps
    Color space : YUV
    Chroma subsampling : 4:2:0
    Bit depth : 8 bits
    Scan type : Progressive
    Compression mode : Lossy
    Bits/(Pixel*Frame) : 0.186
    Stream size : 780 MiB (83%)
    Writing library : XviD 64
    
    Audio
    ID : 2
    Format : AC-3
    Format/Info : Audio Coding 3
    Mode extension : CM (complete main)
    Muxing mode : Header stripping
    Codec ID : A_AC3
    Duration : 2h 29mn
    Bit rate mode : Constant
    Bit rate : 128 Kbps
    Channel(s) : 2 channels
    Channel positions : Front: L R
    Sampling rate : 48.0 KHz
    Bit depth : 16 bits
    Compression mode : Lossy
    Delay relative to video : 13s 500ms
    Stream size : 137 MiB (15%)













    **Single Download Links**
    Code:
    http://filevelocity.com/p8j83nulhyyp/Aaiyaa.2012.1-5.MC.DVDScr.x264.AC3.935MB-Team.EXD.mkv
    
    http://extabit.com/file/279crk64zkre6/Aaiyaa.2012.1-5.MC.DVDScr.x264.AC3.935MB-Team.EXD.mkv
    
    http://ryushare.com/ftxjvk9fjpmf/Aaiyaa.2012.1-5.MC.DVDScr.x264.AC3.935MB-Team.EXD.mkv
    
    http://www.netload.in/datei2vvZs2LDnZ/Aaiyaa.2012.1-5.MC.DVDScr.x264.AC3.935MB-Team.EXD.mkv.htm
    
    http://www.ultramegabit.com/file/details/enPgcaVAfvc


 

 

Posting Permissions

  • You may not post new threads
  • You may not post replies
  • You may not post attachments
  • You may not edit your posts
  •