Results 1 to 1 of 1
  1. #1
    dR Rockers www.desirulez.net
    Join Date
    Aug 2011
    Posts
    5,859

    Cool Sirphire (2012) - 700MB - 1CDRip - DVDRip - [ExD Exclusive]

    Follow us on Social Media





    [CENTER]






    Code:
    Rip Information
    
    Format                                   : Matroska
    Format version                           : Version 2
    File size                                : 697 MiB
    Duration                                 : 2h 5mn
    Overall bit rate                         : 778 Kbps
    Movie name                               : Sirphire (2012) Punjabi DVDRip By [email protected] [ExD Exclusive]
    
    
    
    Video
    
    Codec ID                                 : V_MPEG4/ISO/AVC
    Duration                                 : 2h 5mn
    Bit rate                                 : 649 Kbps
    Width                                    : 720 pixels
    Height                                   : 310 pixels
    Display aspect ratio                     : 2.35:1
    Frame rate                               : 29.970 fps
    Color space                              : YUV
    Chroma subsampling                       : 4:2:0
    Bit depth                                : 8 bits
    Scan type                                : Progressive
    Bits/(Pixel*Frame)                       : 0.097
    Stream size                              : 568 MiB (82%)
    Title                                    : [email protected]
    
    
    
    Audio
    
    Codec ID                                 : A_AC3
    Duration                                 : 2h 5mn
    Bit rate mode                            : Constant
    Bit rate                                 : 128 Kbps
    Channel(s)                               : 2 channels
    Channel positions                        : Front: L R
    Sampling rate                            : 48.0 KHz
    Bit depth                                : 16 bits
    Compression mode                         : Lossy
    Stream size                              : 115 MiB (16%)
    Title                                    : [email protected]
    Language                                 : Panjabi
    Default                                  : Yes




    SINGLE DIRECT FAST LINKS
    Code:
    http://extabit.com/file/2dubyo2sa091c/Sirphire (2012) Punjabi DVDRip By [email protected] [ExD Exclusive].mkv
    Code:
    http://oteupload.com/8mojmgk02eiv/Sirphire_(2012)[email protected]_[ExD_Exclusive].mkv.html

 

 

Posting Permissions

  • You may not post new threads
  • You may not post replies
  • You may not post attachments
  • You may not edit your posts
  •