Results 1 to 1 of 1
  1. #1
    Hot Member www.desirulez.net
    Join Date
    Apr 2012
    Posts
    634

    Default WWE NXT 2012 10 18 HDTV 720p x264 - XD

    Follow us on Social Media






    WWE.NXT.2012.10.18.HDTV.720p.x264-XD (1-Click)
    WWE.NXT.2012.10.18.HDTV.720…mp4 (1,50 GB) - uploaded.to
    Share-Online - dl/XFRWH3CMMZ


    Code:
    http://ul.to/dz832qn4
    http://www.share-online.biz/dl/XFRWH3CMMZ
    NFO:
    Code:
    Video
    ID : 1
    Format : AVC
    Format/Info : Advanced Video Codec
    Format profile : [email protected]
    Format settings, CABAC : Yes
    Format settings, ReFrames : 1 frame
    Format settings, GOP : M=1, N=15
    Codec ID : avc1
    Codec ID/Info : Advanced Video Coding
    Duration : 45mn 58s
    Bit rate mode : Variable
    Bit rate : 4 516 Kbps
    Maximum bit rate : 13.5 Mbps
    Width : 1 280 pixels
    Height : 720 pixels
    Display aspect ratio : 16:9
    Frame rate mode : Constant
    Frame rate : 24.000 fps
    Color space : YUV
    Chroma subsampling : 4:2:0
    Bit depth : 8 bits
    Scan type : Progressive
    Bits/(Pixel*Frame) : 0.204
    Stream size : 1.45 GiB (96%)
    
    Audio
    ID : 2
    Format : AAC
    Format/Info : Advanced Audio Codec
    Format profile : LC
    Codec ID : 40
    Duration : 45mn 58s
    Bit rate mode : Variable
    Bit rate : 165 Kbps
    Channel(s) : 2 channels
    Channel positions : Front: L R
    Sampling rate : 48.0 KHz
    Compression mode : Lossy
    Delay relative to video : -1ms
    Stream size : 54.4 MiB (4%)
    Hoster:
    ul.to + Share-Online.biz

 

 

Posting Permissions

  • You may not post new threads
  • You may not post replies
  • You may not post attachments
  • You may not edit your posts
  •