Results 1 to 1 of 1
  1. #1
    Landed To DesiRulez www.desirulez.net
    Join Date
    Mar 2011
    Location
    Portugal
    Posts
    25

    Thumbs up WWE.NXT.2012.10.18.HDTV.720p.x264-XD

    Follow us on Social Media





    Video
    ID : 1
    Format : AVC
    Format/Info : Advanced Video Codec
    Format profile : [email protected]
    Format settings, CABAC : Yes
    Format settings, ReFrames : 1 frame
    Format settings, GOP : M=1, N=15
    Codec ID : avc1
    Codec ID/Info : Advanced Video Coding
    Duration : 45mn 58s
    Bit rate mode : Variable
    Bit rate : 4 516 Kbps
    Maximum bit rate : 13.5 Mbps
    Width : 1 280 pixels
    Height : 720 pixels
    Display aspect ratio : 16:9
    Frame rate mode : Constant
    Frame rate : 24.000 fps
    Color space : YUV
    Chroma subsampling : 4:2:0
    Bit depth : 8 bits
    Scan type : Progressive
    Bits/(Pixel*Frame) : 0.204
    Stream size : 1.45 GiB (96%)

    Audio
    ID : 2
    Format : AAC
    Format/Info : Advanced Audio Codec
    Format profile : LC
    Codec ID : 40
    Duration : 45mn 58s
    Bit rate mode : Variable
    Bit rate : 165 Kbps
    Channel(s) : 2 channels
    Channel positions : Front: L R
    Sampling rate : 48.0 KHz
    Compression mode : Lossy
    Delay relative to video : -1ms
    Stream size : 54.4 MiB (4%)


    DOWNLOAD

    This file was not capped / created by the uploader. Full credit and all of your thanks should go to that person. If this is your file, thank you


    180upload , filerio, Jumbofiles, And gigaupload.fr links are resumable in download managers
    One Link
    Code:
     
    http://rapidshare.com/files/3301231371/WWE.NXT.2012.10.18.HDTV.720p.x264-XD_wrestlingdesires.com.mp4
    
    http://letitbit.net/download/27835.2d45a806f1cbeb138193744e2416/WWE.NXT.2012.10.18.HDTV.720p.x264-XD_wrestlingdesires.com.mp4.html
    
    http://filerio.in/fg6ru38qp95w
    
    http://ul.to/1yjyjdr5
    
    http://www.putlocker.com/file/BFA1206E48FE08B7
    
    http://www.multiupload.nl/Q2YDLO8JUS
    Split

    Code:
    
    http://filerio.in/656xwznpciw7
    http://filerio.in/hhr6r3ohukrh
    http://filerio.in/l3wq0b7kl1ds
    http://filerio.in/s4pxgn87igyp
    http://filerio.in/x8q0uz5h19m0
    http://filerio.in/btwwnydvz0yn
    
    http://www.gigaup.fr/?g=LNRCTEV1LO
    http://www.gigaup.fr/?g=WFX59Y1OGE
    http://www.gigaup.fr/?g=E0IJA36G8O
    http://www.gigaup.fr/?g=3WYPXZKJ60
    http://www.gigaup.fr/?g=VDE2AK5KSW
    http://www.gigaup.fr/?g=ZRHVPINXST
    
    http://www.multiupload.nl/8MVEXSUB1S
    http://www.multiupload.nl/GDXITJD6YB
    http://www.multiupload.nl/L3H8C0LUC0
    http://www.multiupload.nl/8BF6IQ2VRP
    http://www.multiupload.nl/8L60VLAL18
    http://www.multiupload.nl/BZVK0M0VOP
    
    http://netload.in/dateiaoJe0LtxWA/WWE.NXT.2012.10.18.HDTV.720p.x264-XD_wrestlingdesires.com.part1.rar.htm
    http://netload.in/datei9SWEXM9Tbk/WWE.NXT.2012.10.18.HDTV.720p.x264-XD_wrestlingdesires.com.part3.rar.htm
    http://netload.in/dateink37HCSrTt/WWE.NXT.2012.10.18.HDTV.720p.x264-XD_wrestlingdesires.com.part6.rar.htm
    
    http://www.putlocker.com/file/0114FD79D63CB46A
    http://www.putlocker.com/file/E965F0A43F61CF2B
    http://www.putlocker.com/file/F532671094AE71C8
    http://www.putlocker.com/file/4F4C27CDFA0F0B98
    http://www.putlocker.com/file/212BBE2404FFF294
    http://www.putlocker.com/file/2861132A70BEACFD
    
    http://rapidshare.com/files/3766447002/WWE.NXT.2012.10.18.HDTV.720p.x264-XD_wrestlingdesires.com.part1.rar
    http://rapidshare.com/files/408644412/WWE.NXT.2012.10.18.HDTV.720p.x264-XD_wrestlingdesires.com.part2.rar
    http://rapidshare.com/files/1048466507/WWE.NXT.2012.10.18.HDTV.720p.x264-XD_wrestlingdesires.com.part3.rar
    http://rapidshare.com/files/2677804542/WWE.NXT.2012.10.18.HDTV.720p.x264-XD_wrestlingdesires.com.part4.rar
    http://rapidshare.com/files/2578343537/WWE.NXT.2012.10.18.HDTV.720p.x264-XD_wrestlingdesires.com.part5.rar
    http://rapidshare.com/files/4182812951/WWE.NXT.2012.10.18.HDTV.720p.x264-XD_wrestlingdesires.com.part6.rar
     
    http://turbobit.net/0t7ij8c6pvx6.html
    http://turbobit.net/2hw8ou3tnyr5.html
    http://turbobit.net/4iv42vnklqay.html
    http://turbobit.net/vcln4uflcda3.html
    http://turbobit.net/my9dwu1rbtig.html
    http://turbobit.net/v7txcu615igs.html
    
    http://ul.to/0vkfraiv
    http://ul.to/5jui641i
    http://ul.to/kwj2ge0h
    http://ul.to/da6e6ut6
    http://ul.to/fk6ewef7
    http://ul.to/3ebebczy
    
    http://www4.zippyshare.com/v//file.html
    http://www41.zippyshare.com/v//file.html
    http://www25.zippyshare.com/v//file.html
    http://www65.zippyshare.com/v//file.html
    http://www64.zippyshare.com/v//file.html
    http://www24.zippyshare.com/v/51248784/file.html
    Screens: http://i.imgur.com/lZDAp.jpg

 

 

Posting Permissions

  • You may not post new threads
  • You may not post replies
  • You may not post attachments
  • You may not edit your posts
  •