Results 1 to 2 of 2
  1. #1

    Thumbs up Ami Yasin Ar Amar Madhubala The Voyeurs (2007) - 1CD - WebRip - 725 MB - ESubs - MP4

    Follow us on Social Media





    Ami Yasin Ar Amar Madhubala The Voyeurs (2007) - 1CD - WebRip - 725 MB - ESubs - MP4


    Code:
    Attention:Friend's This is a Film Festivel Copy
    
    
    Cast
    
    Amitabh Bhattacharjee
    Yasin
    Prasenjit Chatterjee
    Dilip
    Himanshu Mishro
    Journalist
    Sameera Reddy
    Rekha
    Director - Buddhadev Dasgupta
    producer:Anurradha Prasad
    Original Music by:Biswadep Dasgupta
    Cinematography by:Sunny Joseph
    Film Editing by:Amitava Dasgupta
    Production Design by:Swapan Kumar Ghosh
    Genre - Drama
    Country:India
    Language:Bengali
    
    
    Imdb:
    Code:
    http://www.imdb.com/title/tt1097209/
    
    UserReviews
    
    
    I saw 'The Voyeurs' at the Toronto Film Festival, along with Adoor's masterly and stunning 'Four Women' and Rituparno's well-crafted though much lesser (than Adoor) 'The Last Lear'. And oh dear - what is one to say to Buddhadeb da's new enterprise but 'alas!' To wit, the movie is a brilliant idea: we are all voyeurs, says the Director, from the ordinary computer-savvy individual to the media-driven State whose institutional apparatuses of 'watching' entrap us all. The movie's ambitious sweep wants to connect billboards, tabloidism, systems of surveillance - from the rich Marwari who wants to catch his cheating wife to the movie's protagonists who wish to watch the object of their affections surreptitiously, using a spy-cam, to the Big Bad State which keeps us all in surveillance in our terrorism-ridden times, with cameras at railway stations and hospitals and whatnot. So while you can run, you can't hide - as these 'images' - naked or otherwise - jump out of their billboards or TV's or computers or where ever else they might be, and join you in your pesky business of living. Brilliant idea! And the job of a film-maker is to make these connections, and that is where the movie totally loses its cache. The acting is under-par, the pacing difficult, and generally, the film gains nothing from its visual dimension (unlike the visual delight that 'Four Women' is). The movie attempts too much and delivers too little: the lead actors are unimpressive, the surreal elements appear contrived and strained, and the film tries too hard to be a film-festival-film. Not a single frame is memorable, not one bit of dialogue comes away with you, and there is no character with whom you can empathize. This is sad, given how immensely talented Dasgupta is, but the movie is a ragbag of ideas poorly executed, and from Buddhadeb da, this is a terrible let-down.
    
    
    
    Technicalinfo
    
    General
    Complete name : Ami, Yasin Ar Amar Madhubala ~The Voyeurs ~with Eng Subs 2007~Amitabh Bhattacharjee,Sameera Reddy~[WebRip 725 MB].mp4
    Format : MPEG-4
    Format profile : Base Media
    Codec ID : isom
    File size : 725 MiB
    Duration : 1h 42mn
    Overall bit rate mode : Variable
    Overall bit rate : 989 Kbps
    
    Video
    Format : AVC
    Format/Info : Advanced Video Codec
    Format profile : [email protected]
    Format settings, CABAC : No
    Format settings, ReFrames : 1 frame
    Format settings, GOP : M=1, N=10
    Codec ID : avc1
    Codec ID/Info : Advanced Video Coding
    Duration : 1h 42mn
    Bit rate mode : Variable
    Bit rate : 896 Kbps
    Maximum bit rate : 1 350 Kbps
    Width : 640 pixels
    Height : 360 pixels
    Display aspect ratio : 16:9
    Frame rate mode : Constant
    Frame rate : 25.000 fps
    Color space : YUV
    Chroma subsampling : 4:2:0
    Bit depth : 8 bits
    Scan type : Progressive
    Bits/(Pixel*Frame) : 0.156
    Stream size : 657 MiB (91%)
    Language : English
    
    Audio
    ID : 1
    Format : AAC
    Format/Info : Advanced Audio Codec
    Format profile : LC
    Codec ID : 40
    Duration : 1h 42mn
    Bit rate mode : Constant
    Bit rate : 89.2 Kbps
    Channel(s) : 2 channels
    Channel positions : Front: L R
    Sampling rate : 44.1 KHz
    Compression mode : Lossy
    Stream size : 65.4 MiB (9%)
    Language : English











    Code:
    http://extabit.com/file/279zegt6rjap2/Ami.Yasin.Ar.Amar.Madhubala.2007.WebRip.mp4
    OR
    http://ultramegabit.com/file/details/uSkMQTissVY
    OR
    http://turbobit.net/do3c6uwls6jk.html
    OR
    http://rapidgator.net/file/51327558/Ami.Yasin.Ar.Amar.Madhubala.2007.WebRip.mp4.html

  2. #2

    Default

    Thank you

 

 

Posting Permissions

  • You may not post new threads
  • You may not post replies
  • You may not post attachments
  • You may not edit your posts
  •