Results 1 to 2 of 2
  1. #1
    Hot Member www.desirulez.net
    Join Date
    Apr 2012
    Posts
    634

    Default WWE NXT 2012 10 18 HDTV x264 - HD

    Follow us on Social Media






    WWE.NXT.2012.10.18.HDTV.x264-HD (1-Click)
    Share-Online - dl/X0DO33CMCG
    WWE.NXT.2012.10.18.HDTV.x26…mp4 (435,32 MB) - uploaded.to

    Code:
    http://www.share-online.biz/dl/X0DO33CMCG
    http://ul.to/m6ad5hxq
    NFO:
    Code:
    Video
    ID : 1
    Format : AVC
    Format/Info : Advanced Video Codec
    Format profile : [email protected]
    Format settings, CABAC : Yes
    Format settings, ReFrames : 4 frames
    Codec ID : avc1
    Codec ID/Info : Advanced Video Coding
    Duration : 45mn 56s
    Bit rate mode : Variable
    Bit rate : 1 200 Kbps
    Width : 704 pixels
    Height : 400 pixels
    Display aspect ratio : 16:9
    Frame rate mode : Constant
    Frame rate : 25.000 fps
    Color space : YUV
    Chroma subsampling : 4:2:0
    Bit depth : 8 bits
    Scan type : Progressive
    Bits/(Pixel*Frame) : 0.170
    Stream size : 394 MiB (91%)
    Writing library : x264 core 120
    Encoding settings : cabac=1 / ref=1 / deblock=1:0:0 / analyse=0x1:0x111 / me=hex / subme=2 / psy=1 / psy_rd=1.00:0.00 / mixed_ref=0 / me_range=16 / chroma_me=1 / trellis=0 / 8x8dct=0 / cqm=0 / deadzone=21,11 / fast_pskip=1 / chroma_qp_offset=0 / threads=3 / sliced_threads=0 / nr=0 / decimate=1 / interlaced=0 / bluray_compat=0 / constrained_intra=0 / bframes=3 / b_pyramid=2 / b_adapt=1 / b_bias=0 / direct=1 / weightb=1 / open_gop=0 / weightp=1 / keyint=250 / keyint_min=25 / scenecut=40 / intra_refresh=0 / rc_lookahead=10 / rc=abr / mbtree=1 / bitrate=1200 / ratetol=1.0 / qcomp=0.60 / qpmin=3 / qpmax=69 / qpstep=4 / ip_ratio=1.40 / aq=1:1.00
    Encoded date : UTC 2012-10-18 08:48:19
    Tagged date : UTC 2012-10-18 09:21:16
    Color primaries : BT.709-5, BT.1361, IEC 61966-2-4, SMPTE RP177
    Transfer characteristics : BT.709-5, BT.1361
    Matrix coefficients : BT.709-5, BT.1361, IEC 61966-2-4 709, SMPTE RP177
    
    Audio
    ID : 2
    Format : MPEG Audio
    Format version : Version 1
    Format profile : Layer 3
    Codec ID : 69
    Duration : 45mn 53s
    Bit rate mode : Variable
    Bit rate : 121 Kbps
    Maximum bit rate : 153 Kbps
    Channel(s) : 2 channels
    Sampling rate : 48.0 KHz
    Compression mode : Lossy
    Delay relative to video : -80ms
    Stream size : 39.6 MiB (9%)
    Language : English
    Encoded date : UTC 2012-10-18 08:48:19
    Tagged date : UTC 2012-10-18 09:21:15
    Hoster:
    ul.to + Share-Online.biz

  2. #2
    Super Member www.desirulez.net
    Join Date
    Feb 2012
    Posts
    311

    Default

    Thanks!

 

 

Posting Permissions

  • You may not post new threads
  • You may not post replies
  • You may not post attachments
  • You may not edit your posts
  •