Results 1 to 1 of 1
  1. #1
    dR Rockers www.desirulez.net
    Join Date
    Sep 2011
    Posts
    59

    Cool Bol Bachchan (2012) - 720p - BluRay - x264 - DD 5.1 - Esubs

    Follow us on Social Media







    Code:
    Format                                   : Matroska
    Format version                           : Version 2
    File size                                : 7.95 GiB
    Duration                                 : 2h 29mn
    Overall bit rate                         : 7 606 Kbps
    Encoded date                             : UTC 2012-10-17 06:30:48
    Writing application                      : mkvmerge v5.8.0 ('No Sleep / Pillow') built on Sep  2 2012 15:37:04
    Writing library                          : libebml v1.2.3 + libmatroska v1.3.0
    
    Video
    ID                                       : 1
    Format                                   : AVC
    Format/Info                              : Advanced Video Codec
    Format profile                           : [email protected]
    Format settings, CABAC                   : Yes
    Format settings, ReFrames                : 12 frames
    Codec ID                                 : V_MPEG4/ISO/AVC
    Duration                                 : 2h 29mn
    Bit rate                                 : 7 158 Kbps
    Width                                    : 1 280 pixels
    Height                                   : 544 pixels
    Display aspect ratio                     : 2.35:1
    Frame rate                               : 24.000 fps
    Color space                              : YUV
    Chroma subsampling                       : 4:2:0
    Bit depth                                : 8 bits
    Scan type                                : Progressive
    Bits/(Pixel*Frame)                       : 0.428
    Stream size                              : 7.32 GiB (92%)
    Writing library                          : x264 core 125 r2200 999b753
    Encoding settings                        : cabac=1 / ref=12 / deblock=1:-3:-3 / analyse=0x3:0x113 / me=umh / subme=10 / psy=1 / psy_rd=1.05:0.10 / mixed_ref=1 / me_range=48 / chroma_me=1 / trellis=2 / 8x8dct=1 / cqm=0 / deadzone=21,11 / fast_pskip=0 / chroma_qp_offset=-3 / threads=12 / lookahead_threads=2 / sliced_threads=0 / nr=0 / decimate=0 / interlaced=0 / bluray_compat=0 / constrained_intra=0 / bframes=6 / b_pyramid=2 / b_adapt=2 / b_bias=0 / direct=3 / weightb=1 / open_gop=0 / weightp=2 / keyint=240 / keyint_min=24 / scenecut=40 / intra_refresh=0 / rc_lookahead=60 / rc=2pass / mbtree=1 / bitrate=7158 / ratetol=1.0 / qcomp=0.60 / qpmin=10 / qpmax=51 / qpstep=4 / cplxblur=20.0 / qblur=0.5 / vbv_maxrate=38000 / vbv_bufsize=30000 / nal_hrd=none / ip_ratio=1.40 / aq=1:1.00
    Default                                  : Yes
    Forced                                   : No
    
    Audio
    ID                                       : 2
    Format                                   : AC-3
    Format/Info                              : Audio Coding 3
    Mode extension                           : CM (complete main)
    Codec ID                                 : A_AC3
    Duration                                 : 2h 29mn
    Bit rate mode                            : Constant
    Bit rate                                 : 448 Kbps
    Channel(s)                               : 6 channels
    Channel positions                        : Front: L C R, Side: L R, LFE
    Sampling rate                            : 48.0 KHz
    Bit depth                                : 16 bits
    Compression mode                         : Lossy
    Stream size                              : 479 MiB (6%)
    Title                                    : 5.1 DD 448 Kbps
    Language                                 : Hindi
    Default                                  : Yes
    Forced                                   : No
    
    Text
    ID                                       : 3
    Format                                   : UTF-8
    Codec ID                                 : S_TEXT/UTF8
    Codec ID/Info                            : UTF-8 Plain Text
    Language                                 : English
    Default                                  : No
    Forced                                   : No
    
    Menu
    00:00:00.000                             : :1. Titles/Bol Bachchan...
    00:07:48.625                             : :2. To Ranakpur
    00:16:41.250                             : :3. Controversy Temple
    00:26:53.083                             : :4. Artificial Family Story
    00:36:21.875                             : :5. Bonfire Action
    00:45:50.125                             : :6. Counterfeit Mother
    00:53:45.750                             : :7. Perplexity Play
    01:03:46.917                             : :8. Chalao Na Naino Se...
    01:07:01.625                             : :9. True Face On Mosque
    01:14:45.792                             : :10. Entry of Abbas
    01:23:36.833                             : :11. Nach Le Nach Le...
    01:28:31.500                             : :12. Doubt of Hoaxing
    01:35:45.708                             : :13. Fact Wrecked
    01:44:37.833                             : :14. Sister's New Trend
    01:53:21.333                             : :15. Sister Gone Astray
    02:02:40.458                             : :16. Prithvi Enlighten's His Love
    02:10:37.917                             : :17. Stage Show
    02:16:54.583                             : :18. Climax



    Code:
    http://extabit.com/file/279r4b6dli3sq/Bol.Bachchan.2012.720p.BluRay.DD5.1.x264.mkv

    Code:
    http://extabit.com/file/279r4b6dm4o16/Bol.Bachchan.2012.720p.BluRay.DD5.1.x264.mkv.001
    http://extabit.com/file/279r4b6dm4nze/Bol.Bachchan.2012.720p.BluRay.DD5.1.x264.mkv.002
    http://extabit.com/file/279r4b6dm4o1m/Bol.Bachchan.2012.720p.BluRay.DD5.1.x264.mkv.003
    http://extabit.com/file/279r4b6dli0l6/Bol.Bachchan.2012.720p.BluRay.DD5.1.x264.mkv.004
    http://extabit.com/file/279r4b6dlhr2y/Bol.Bachchan.2012.720p.BluRay.DD5.1.x264.mkv.005
    http://extabit.com/file/279r4b6dlhxiy/Bol.Bachchan.2012.720p.BluRay.DD5.1.x264.mkv.006
    http://extabit.com/file/279r4b6dm4kru/Bol.Bachchan.2012.720p.BluRay.DD5.1.x264.mkv.007
    http://extabit.com/file/279r4b6dm4nyy/Bol.Bachchan.2012.720p.BluRay.DD5.1.x264.mkv.008
    http://extabit.com/file/279r4b6dlhr16/Bol.Bachchan.2012.720p.BluRay.DD5.1.x264.mkv.009
    Code:
    http://rapidgator.net/file/51251734/Bol.Bachchan.2012.720p.BluRay.DD5.1.x264.mkv.001.html
    http://rapidgator.net/file/51251731/Bol.Bachchan.2012.720p.BluRay.DD5.1.x264.mkv.002.html
    http://rapidgator.net/file/51251736/Bol.Bachchan.2012.720p.BluRay.DD5.1.x264.mkv.003.html
    http://rapidgator.net/file/51251730/Bol.Bachchan.2012.720p.BluRay.DD5.1.x264.mkv.004.html
    http://rapidgator.net/file/51251810/Bol.Bachchan.2012.720p.BluRay.DD5.1.x264.mkv.005.html
    http://rapidgator.net/file/51251744/Bol.Bachchan.2012.720p.BluRay.DD5.1.x264.mkv.006.html
    http://rapidgator.net/file/51251729/Bol.Bachchan.2012.720p.BluRay.DD5.1.x264.mkv.007.html
    http://rapidgator.net/file/51251793/Bol.Bachchan.2012.720p.BluRay.DD5.1.x264.mkv.008.html
    http://rapidgator.net/file/51251416/Bol.Bachchan.2012.720p.BluRay.DD5.1.x264.mkv.009.html

 

 

Posting Permissions

  • You may not post new threads
  • You may not post replies
  • You may not post attachments
  • You may not edit your posts
  •