Results 1 to 1 of 1
  1. #1
    Landed To DesiRulez www.desirulez.net
    Join Date
    Mar 2010
    Posts
    14

    Default Hindustani Yoddha (2011) - HDRip - Hindi-Telugu -=AbdullaH=

    Follow us on Social Media














    Code:
    Format                                  : Matroska
    Format version                          : Version 2
    File size                               : 1.56 GiB
    Duration                                : 2h 9mn
    Overall bit rate                        : 1 727 Kbps
    Movie name                              : Hindustani Yoddha (2011) HDRip Hindi-Telugu -=AbdullaH=- [TDT]
    Encoded date                            : UTC 2012-10-15 04:15:51
    Writing application                     : mkvmerge v4.9.1 ('Ich will') built on Jul 11 2011 23:53:15
    Writing library                         : libebml v1.2.1 + libmatroska v1.1.1
    
    Video
    ID                                      : 1
    Format                                  : MPEG-4 Visual
    Format profile                          : Advanced [email protected]
    Format settings, BVOP                   : Yes
    Format settings, QPel                   : Yes
    Format settings, GMC                    : No warppoints
    Format settings, Matrix                 : Default (H.263)
    Codec ID                                : XVID
    Codec ID/Hint                           : XviD
    Duration                                : 2h 9mn
    Bit rate                                : 1 437 Kbps
    Width                                   : 688 pixels
    Height                                  : 320 pixels
    Display aspect ratio                    : 2.2:1
    Frame rate                              : 25.000 fps
    Color space                             : YUV
    Chroma subsampling                      : 4:2:0
    Bit depth                               : 8 bits
    Scan type                               : Progressive
    Compression mode                        : Lossy
    Bits/(Pixel*Frame)                      : 0.261
    Stream size                             : 1.30 GiB (83%)
    Title                                   : Hindustani Yoddha (2011) HDRip Hindi-Telugu -=AbdullaH=- [TDT]
    Writing library                         : XviD 1.2.1 (UTC 2008-12-04)
    Default                                 : Yes
    Forced                                  : No
    
    Audio #1
    ID                                      : 2
    Format                                  : MPEG Audio
    Format version                          : Version 1
    Format profile                          : Layer 3
    Mode                                    : Joint stereo
    Mode extension                          : MS Stereo
    Muxing mode                             : Header stripping
    Codec ID                                : A_MPEG/L3
    Codec ID/Hint                           : MP3
    Duration                                : 2h 9mn
    Bit rate mode                           : Constant
    Bit rate                                : 128 Kbps
    Channel(s)                              : 2 channels
    Sampling rate                           : 44.1 KHz
    Compression mode                        : Lossy
    Stream size                             : 119 MiB (7%)
    Title                                   : -=AbdullaH=- [TDT]
    Writing library                         : LAME3.99r
    Encoding settings                       : -m j -V 4 -q 2 -lowpass 17 -b 128
    Language                                : Telugu
    Default                                 : No
    Forced                                  : No
    
    Audio #2
    ID                                      : 3
    Format                                  : MPEG Audio
    Format version                          : Version 1
    Format profile                          : Layer 3
    Muxing mode                             : Header stripping
    Codec ID                                : A_MPEG/L3
    Codec ID/Hint                           : MP3
    Duration                                : 2h 9mn
    Bit rate mode                           : Constant
    Bit rate                                : 128 Kbps
    Channel(s)                              : 2 channels
    Sampling rate                           : 44.1 KHz
    Compression mode                        : Lossy
    Stream size                             : 119 MiB (7%)
    Title                                   : -=AbdullaH=- [TDT]
    Language                                : Hindi
    Default                                 : Yes
    Forced                                  : No



    SINGLE DIRECT FAST LINKS


    Code:
    http://extabit.com/file/2dubg2yh5hffl/Hindustani Yoddha (2011) HDRip Hindi-Telugu -=AbdullaH=- [TDT].mkv
    Code:
    http://oteupload.com/t7efzav31raz/Hindustani_Yoddha_(2011)_HDRip_Hindi-Telugu_-=AbdullaH=-_[TDT].mkv.html


 

 

Posting Permissions

  • You may not post new threads
  • You may not post replies
  • You may not post attachments
  • You may not edit your posts
  •