Results 1 to 1 of 1
  1. #1

    Default Son of Sardar Title song (2012) 1080p [full hd]

    Follow us on Social Media





    Son of Sardar Title song (2012) 1080p [full hd]


    Complete name : Son of Sardaar Title Video.mp4
    Format : MPEG-4
    Format profile : Base Media / Version 2
    Codec ID : mp42
    File size : 88.3 MiB
    Duration : 2mn 2s
    Overall bit rate : 6 041 Kbps



    Video
    ID : 1
    Format : AVC
    Format/Info : Advanced Video Codec
    Format profile : [email protected]
    Format settings, CABAC : Yes
    Format settings, ReFrames : 1 frame
    Codec ID : avc1
    Codec ID/Info : Advanced Video Coding
    Duration : 2mn 2s
    Bit rate mode : Variable
    Bit rate : 5 846 Kbps
    Maximum bit rate : 10.1 Mbps
    Width : 1 920 pixels
    Height : 1 080 pixels
    Display aspect ratio : 16:9
    Frame rate mode : Constant
    Frame rate : 25.000 fps
    Color space : YUV
    Chroma subsampling : 4:2:0
    Bit depth : 8 bits
    Scan type : Progressive
    Bits/(Pixel*Frame) : 0.113
    Stream size : 85.4 MiB (97%)
    Tagged date : UTC 2012-09-18 13:21:56

    Audio
    ID : 2
    Format : AAC
    Format/Info : Advanced Audio Codec
    Format profile : LC
    Codec ID : 40
    Duration : 2mn 2s
    Bit rate mode : Variable
    Bit rate : 192 Kbps
    Maximum bit rate : 203 Kbps
    Channel(s) : 2 channels
    Channel positions : Front: L R
    Sampling rate : 44.1 KHz
    Compression mode : Lossy
    Stream size : 2.81 MiB (3%)






    Code:
    http://rapidgator.net/file/46923586/Son_of_Sardaar_Title_Video.mp4.html
    
    http://ul.to/ilzku1sm



 

 

Posting Permissions

  • You may not post new threads
  • You may not post replies
  • You may not post attachments
  • You may not edit your posts
  •