Results 1 to 1 of 1
  1. #1

    Thumbs up Life In Park Street (2012)- Non Retail -1CD - DVDRip - Xvid -MP3 [DDD]

    Follow us on Social Media





    Life In Park Street (2012)- Non Retail -1CD - DVDRip - Xvid -MP3 [DDD]




    Code:
    Release date(s) - July 20, 2012 (Kolkata)
    	
    Park Street is an extremely popular and well-known destination of Kolkata. Dreams come to fruition or are shattered beyond all repair on Park Street every day. Relationships blossom or break here on a regular basis. Niladri Chatterjee who is in his seventies frequents Park Street daily with the hope of meeting his lost love Annie. A film director by profession, Niladri has last met Annie,a pop-singer when she has been pregnant with their child. She had vanished from his life soon after wards. He never really got an opportunity to see his daughter. Arindam and Radhika ... 
    Reviews
    
    Park Street is a name which is synonymous for itís fine dining places,nostalgia and even night clubs as a few of them are located near it and one of them plus a pub is located on it. This was considered the place from where night life took place from the 60s and it has continued since. It has some of the best restaurants and night spots of Kolkata. People go there to have a ball, sometimes to down a peg or two, sometimes to shake a leg and at times to indulge in all three of them. It is indeed special for most of us taking into consideration all generations. Raj ...
    
    Cast:
    Dron Mukherjee - Pushan
    Shruti Bandyopadhyay - Disha
    Soumitra Chatterjee - Niladri
    Debashree Roy - Radhika
    Shankar Chakraborty - Arindam
    Manjusree Gangopadhyay - Bipasha
    AatishRoop - (Dance Choreographer)
    Jagannath Guha
    Baishakhi Marjit - Anne
    
    General
    Format : AVI
    Format/Info : Audio Video Interleave
    File size : 691 MiB
    Duration : 2h 31mn
    Overall bit rate : 639 Kbps
    Video #0
    ID : 0
    Format : MPEG-4 Visual
    Format profile : Advanced [email protected]
    Format settings, BVOP : 2
    Format settings, QPel : No
    Format settings, GMC : No warppoints
    Format settings, Matrix : Default (H.263)
    Codec ID : XVID
    Codec ID/Hint : XviD
    Duration : 2h 31mn
    Bit rate : 569 Kbps
    Width : 640 pixels
    Height : 272 pixels
    Display aspect ratio : 2.35:1
    Frame rate : 25.000 fps
    Color space : YUV
    Chroma subsampling : 4:2:0
    Bit depth : 8 bits
    Scan type : Progressive
    Compression mode : Lossy
    Bits/(Pixel*Frame) : 0.131
    Stream size : 615 MiB (89%)
    AUDIO
    
    Audio #1
    ID : 1
    Format : MPEG Audio
    Format version : Version 2
    Format profile : Layer 3
    Mode : Joint stereo
    Mode extension : MS Stereo
    Codec ID : 55
    Codec ID/Hint : MP3
    Duration : 2h 31mn
    Bit rate mode : Constant
    Bit rate : 64.0 Kbps
    Channel(s) : 2 channels
    Sampling rate : 24.0 KHz
    Compression mode : Lossy
    Stream size : 69.2 MiB (10%)













    Code:
    sample
    Sample1
    http://www.sendspace.com/file/mo2wuw
    Sample2
    http://www.sendspace.com/file/hcj20o
    Code:
    Resume Support File[IDM+DAP Supported]
    http://ultramegabit.com/file/details/zsebLCX-0aA
    OR
    http://extabit.com/file/29zqrszut4qhf
    OR
    http://bitshare.com/files/zkvy2rwb/Life.In.Park.Street.2012.-Non.Retail.1CD.DVDRip.Xvid.MP3_ddd.avi.html

 

 

Posting Permissions

  • You may not post new threads
  • You may not post replies
  • You may not post attachments
  • You may not edit your posts
  •