Results 1 to 2 of 2
  1. #1

    Thumbs up Awara (2012) - Upscaled.DvdRip.720p -x264 -DTS-5.1 -E.Sub [DDD]

    Follow us on Social Media





    Awara (2012) - Upscaled.DvdRip.720p -x264 -DTS-5.1 -E.Sub [DDD]





    Code:
    The film is about Surja (Jeet) who was once a software engineer but quits his job to give it to his friend and is unemployed in the city of Kolkata. Poulomi (Sayantika Banerjee) is a girl who studies in college and comes in her vacation to stay with her younger brother Madan Mohan (Kharaj Mukherjee). Madan has a wife. Surja falls in love with Poulomi at first sight and starts chasing her to win her heart and enters the upper portion of their house as tenants with his brother (Biswajit Chakraborty) and sister-in-law (Tulika Mukhopadhyay). Mistaking him to be a tapori, Poulomi hates him first but later on she realizes his true nature. She returns to Kolkata and lives with her elder brother Indrajit (Ashish Vidyarthi), a former builder and now a very powerful rowdy who is very possessive and protective about his sister. Surja follows Poulomi to Kolkata and works his way into their house with the help of Madan and finally both of them confess their love. There, Surja learns of the flashback of Poulomi and how she is being chased by the notorious and cruel Tony (Mukul Dev) assisted by his uncle (Supriyo Dutta) for marriage. Surja fights Tony, Indrajit kills him, and Surja and Poulomi unite with each other in the end.
    
    its a record breaking blockbuster but this record has broke by paglu2.its a 79% hit in boxoffice & paglu2 84% in boxoffice
    
    Cast:
    Jeet as Surja
    Sayantika Banerjee as Poulomi
    Mukul Dev as Tony
    Ashish Vidyarthi as Indrajit
    Kharaj Mukherjee as Madan Mohan
    Supriyo Dutta as Tony's uncle
    Biswajit Chakraborty as Surya's brother
    Tulika Mukhopadhyay as Surya's sister-in-law
    Biswanath Bose
    Tamal Roy Chowdhury
    Subhasish Mukherjee
    
    General
    Format : Matroska
    Format version : Version 2
    File size : 2.49 GiB
    Duration : 2h 31mn
    Overall bit rate : 2 358 Kbps
    Video #1
    ID : 1
    Format : AVC
    Format/Info : Advanced Video Codec
    Format profile : [email protected]
    Format settings, CABAC : Yes
    Format settings, ReFrames : 5 frames
    Codec ID : V_MPEG4/ISO/AVC
    Duration : 2h 31mn
    Bit rate : 1 599 Kbps
    Width : 1 280 pixels
    Height : 560 pixels
    Display aspect ratio : 2.25:1
    Frame rate : 23.976 fps
    Color space : YUV
    Chroma subsampling : 4:2:0
    Bit depth : 8 bits
    Scan type : Progressive
    Bits/(Pixel*Frame) : 0.093
    Stream size : 1.64 GiB (66%)
    
    Audio #2
    ID : 2
    Format : DTS
    Format/Info : Digital Theater Systems
    Codec ID : A_DTS
    Duration : 2h 31mn
    Bit rate mode : Constant
    Bit rate : 755 Kbps
    Channel(s) : 6 channels
    Channel positions : Front: L C R, Side: L R, LFE
    Sampling rate : 48.0 KHz
    Bit depth : 24 bits
    Compression mode : Lossy
    Stream size : 815 MiB (32%)
    Default : Yes
    Forced : No
    Text #3
    ID : 3
    Format : VobSub
    Muxing mode : zlib
    Codec ID : S_VOBSUB
    Codec ID/Info : The same subtitle format used on DVDs
    Language : English
    Default : Yes
    Forced : No














    Code:
    sample
    http://www.sendspace.com/file/cimb0m
    Code:
    Resume Support File[IDM+DAP Supported]
    http://ultramegabit.com/file/details/fH7jd3ujOsM
    http://ultramegabit.com/file/details/R_qCxaOiiog
    http://ultramegabit.com/file/details/dAn6q5zshow
    OR
    http://extabit.com/file/279yvwlwzg0e9/Awara.2012.Upscaled.DvdRip.720p.x264.DTS-5.1-E.Sub.mkv.001
    http://extabit.com/file/279yvwlwzfx8h/Awara.2012.Upscaled.DvdRip.720p.x264.DTS-5.1-E.Sub.mkv.002
    http://extabit.com/file/279yvwlx03jj5/Awara.2012.Upscaled.DvdRip.720p.x264.DTS-5.1-E.Sub.mkv.003
    OR
    http://fileuplo.de/sra9cson0pnc.html
    http://fileuplo.de/mjogz403r5co.html
    http://fileuplo.de/ub6vh6lynotb.html

  2. #2

    Default

    Thanks my friend. The picture and sound quality are exceptional. Keep them coming... Kudos to you...

 

 

Posting Permissions

  • You may not post new threads
  • You may not post replies
  • You may not post attachments
  • You may not edit your posts
  •