Results 1 to 1 of 1
  1. #1
    Super Member www.desirulez.net
    Join Date
    Aug 2012
    Posts
    211

    Default Kismet Love Paisa Dilli (2012) 1/3 DVDScr XviD AC3 [DDR]

    Follow us on Social Media





    Kismet Love Paisa Dilli (2012) 1/3 DVDScr XviD AC3 [DDR]



    Code:
    General
    Complete name                            : dvdscr-klpd-ddr.avi
    Source                     : DDR
    Ripper                        : th3obr0
    
    Format                                   : AVI
    Format/Info                              : Audio Video Interleave
    File size                                : 1.42 GiB
    Duration                                 : 2h 19mn
    Overall bit rate                         : 1 455 Kbps
    Writing application                      : VirtualDubMod 1.5.10.2 (build 2540/release)
    Writing library                          : VirtualDubMod build 2540/release
    
    Video
    ID                                       : 0
    Format                                   : MPEG-4 Visual
    Format profile                           : Advanced [email protected]
    Format settings, BVOP                    : 2
    Format settings, QPel                    : No
    Format settings, GMC                     : No warppoints
    Format settings, Matrix                  : Custom
    Codec ID                                 : XVID
    Codec ID/Hint                            : XviD
    Duration                                 : 2h 19mn
    Bit rate                                 : 998 Kbps
    Width                                    : 720 pixels
    Height                                   : 288 pixels
    Display aspect ratio                     : 2.500
    Frame rate                               : 23.976 fps
    Color space                              : YUV
    Chroma subsampling                       : 4:2:0
    Bit depth                                : 8 bits
    Scan type                                : Progressive
    Compression mode                         : Lossy
    Bits/(Pixel*Frame)                       : 0.201
    Stream size                              : 996 MiB (69%)
    Writing library                          : XviD 1.2.1 (UTC 2008-12-04)
    
    Audio
    ID                                       : 1
    Format                                   : AC-3
    Format/Info                              : Audio Coding 3
    Mode extension                           : CM (complete main)
    Format settings, Endianness              : Big
    Codec ID                                 : 2000
    Duration                                 : 2h 19mn
    Bit rate mode                            : Constant
    Bit rate                                 : 448 Kbps
    Channel(s)                               : 6 channels
    Channel positions                        : Front: L C R, Side: L R, LFE
    Sampling rate                            : 48.0 KHz
    Bit depth                                : 16 bits
    Compression mode                         : Lossy
    Stream size                              : 447 MiB (31%)
    Alignment                                : Split accross interleaves
    Interleave, duration                     : 42 ms (1.00 video frame)
    Interleave, preload duration             : 500 ms











    **Single Links**
    Code:
    http://extabit.com/file/279crmttx0nb2/Kismet.Love.Paisa.Dilli.2012.DVDScr.XviD.AC3.DDR.avi
    
    http://ryushare.com/dctxmxnne7oh/Kismet.Love.Paisa.Dilli.2012.DVDScr.XviD.AC3.DDR.avi
    
    http://ryushare.com/3a4c71bc4b5e/Kismet.Love.Paisa.Dilli.2012.DVDScr.XviD.AC3.DDR.avi
    
    http://www.netload.in/dateiv7n1ZTIh66/Kismet.Love.Paisa.Dilli.2012.DVDScr.XviD.AC3.DDR.avi.htm
    **Extabit**
    Code:
    http://extabit.com/file/279crmttx0tmm/Kismet.Love.Paisa.Dilli.2012.DVDScr.XviD.AC3.DDR.avi.001
    http://extabit.com/file/279crmttx0tfy/Kismet.Love.Paisa.Dilli.2012.DVDScr.XviD.AC3.DDR.avi.002
    http://extabit.com/file/279crmttx0qce/Kismet.Love.Paisa.Dilli.2012.DVDScr.XviD.AC3.DDR.avi.003
    **Ryushare**
    Code:
    http://ryushare.com/gfmb83is2oud/Kismet.Love.Paisa.Dilli.2012.DVDScr.XviD.AC3.DDR.avi.001
    http://ryushare.com/gh5a7x3le5bl/Kismet.Love.Paisa.Dilli.2012.DVDScr.XviD.AC3.DDR.avi.002
    http://ryushare.com/47c6dpo3q0j6/Kismet.Love.Paisa.Dilli.2012.DVDScr.XviD.AC3.DDR.avi.003
    **NetLoad**
    Code:
    http://www.netload.in/dateiF4iVh7FbcS/Kismet.Love.Paisa.Dilli.2012.DVDScr.XviD.AC3.DDR.avi.001.htm
    http://www.netload.in/dateiuPze5nZ24p/Kismet.Love.Paisa.Dilli.2012.DVDScr.XviD.AC3.DDR.avi.002.htm
    http://www.netload.in/datei40YWbjyzj1/Kismet.Love.Paisa.Dilli.2012.DVDScr.XviD.AC3.DDR.avi.003.htm


 

 

Posting Permissions

  • You may not post new threads
  • You may not post replies
  • You may not post attachments
  • You may not edit your posts
  •