Results 1 to 1 of 1
  1. #1

    Default English Vinglish (2012) - DVDSCREENER - XviD - 1CDRip - [DDR]

    Follow us on Social Media







    English Vinglish (2012)
    **DVDSCREENER XviD 1CDRip**

    **Cleaned Audio**


    [ iNFO ]

    Code:
    General
    Complete name                            : dvdscr-englishvinglish-ddr.avi
    Source					 : DDR
    Ripper					 : th3obr0
    
    Format                                   : AVI
    Format/Info                              : Audio Video Interleave
    File size                                : 696 MiB
    Duration                                 : 2h 9mn
    Overall bit rate                         : 749 Kbps
    Writing application                      : VirtualDubMod 1.5.10.2 (build 2540/release)
    Writing library                          : VirtualDubMod build 2540/release
    
    Video
    ID                                       : 0
    Format                                   : MPEG-4 Visual
    Format profile                           : Advanced [email protected]
    Format settings, BVOP                    : 1
    Format settings, QPel                    : No
    Format settings, GMC                     : No warppoints
    Format settings, Matrix                  : Custom
    Codec ID                                 : XVID
    Codec ID/Hint                            : XviD
    Duration                                 : 2h 9mn
    Bit rate                                 : 660 Kbps
    Width                                    : 624 pixels
    Height                                   : 272 pixels
    Display aspect ratio                     : 2.25:1
    Frame rate                               : 23.976 fps
    Color space                              : YUV
    Chroma subsampling                       : 4:2:0
    Bit depth                                : 8 bits
    Scan type                                : Progressive
    Compression mode                         : Lossy
    Bits/(Pixel*Frame)                       : 0.162
    Stream size                              : 613 MiB (88%)
    Writing library                          : XviD 1.2.1 (UTC 2008-12-04)
    
    Audio
    ID                                       : 1
    Format                                   : MPEG Audio
    Format version                           : Version 1
    Format profile                           : Layer 3
    Mode                                     : Joint stereo
    Mode extension                           : MS Stereo
    Codec ID                                 : 55
    Codec ID/Hint                            : MP3
    Duration                                 : 2h 9mn
    Bit rate mode                            : Constant
    Bit rate                                 : 80.0 Kbps
    Channel(s)                               : 2 channels
    Sampling rate                            : 32.0 KHz
    Compression mode                         : Lossy
    Stream size                              : 74.4 MiB (11%)
    Alignment                                : Aligned on interleaves
    Interleave, duration                     : 42 ms (1.00 video frame)
    Interleave, preload duration             : 504 ms
    Writing library                          : LAME3.99r
    Encoding settings                        : -m j -V 4 -q 2 -lowpass 13.5 -b 80
    [ SCREENS ]





















    [ SAMPLE ]

    Code:
    [7M - 00:01:33]
    http://mirrorstack.com/3rmy2hnb3u44
    Single Resumable Links
    Code:
    http://ultramegabit.com/file/details/TlsO-U_AFTI
    
    https://rapidshare.com/files/2550461097/1cdrip-englishvinglish-ddr.avi


 

 

Tags for this Thread

Posting Permissions

  • You may not post new threads
  • You may not post replies
  • You may not post attachments
  • You may not edit your posts
  •