Results 1 to 1 of 1
  1. #1

    Thumbs up English Vinglish (2012) - 1/3 DVDScr - XviD - AC3 [DDR]

    Follow us on Social Media





    English Vinglish (2012) - 1/3 DVDScr - XviD - AC3 [DDR]



    Code:
    General
    Complete name                            : dvdscr-englishvinglish-ddr.avi
    Source					 : DDR
    Ripper					 : th3obr0
    
    Format                                   : AVI
    Format/Info                              : Audio Video Interleave
    File size                                : 1.45 GiB
    Duration                                 : 2h 9mn
    Overall bit rate                         : 1 596 Kbps
    Writing application                      : VirtualDubMod 1.5.10.2 (build 2540/release)
    Writing library                          : VirtualDubMod build 2540/release
    
    Video
    ID                                       : 0
    Format                                   : MPEG-4 Visual
    Format profile                           : Advanced [email protected]
    Format settings, BVOP                    : 2
    Format settings, QPel                    : No
    Format settings, GMC                     : No warppoints
    Format settings, Matrix                  : Custom
    Codec ID                                 : XVID
    Codec ID/Hint                            : XviD
    Duration                                 : 2h 9mn
    Bit rate                                 : 1 394 Kbps
    Width                                    : 720 pixels
    Height                                   : 320 pixels
    Display aspect ratio                     : 2.25:1
    Frame rate                               : 23.976 fps
    Color space                              : YUV
    Chroma subsampling                       : 4:2:0
    Bit depth                                : 8 bits
    Scan type                                : Progressive
    Compression mode                         : Lossy
    Bits/(Pixel*Frame)                       : 0.252
    Stream size                              : 1.27 GiB (87%)
    Writing library                          : XviD 1.2.1 (UTC 2008-12-04)
    
    Audio
    ID                                       : 1
    Format                                   : AC-3
    Format/Info                              : Audio Coding 3
    Mode extension                           : CM (complete main)
    Format settings, Endianness              : Big
    Codec ID                                 : 2000
    Duration                                 : 2h 9mn
    Bit rate mode                            : Constant
    Bit rate                                 : 192 Kbps
    Channel(s)                               : 2 channels
    Channel positions                        : Front: L R
    Sampling rate                            : 48.0 KHz
    Bit depth                                : 16 bits
    Compression mode                         : Lossy
    Stream size                              : 179 MiB (12%)
    Alignment                                : Split accross interleaves
    Interleave, duration                     : 42 ms (1.00 video frame)
    Interleave, preload duration             : 500 ms









    Code:
    Sample
    http://mirrorstack.com/ym0xig8zhbal
    Code:
    Resume Support File[IDM+DAP Supported]
    http://ultramegabit.com/file/details/4-ERqV-CZ1U
    http://ultramegabit.com/file/details/p4sc_gwf15A
    OR
    http://extabit.com/file/29zqrz5ku6so3
    http://extabit.com/file/29zqrz5ktjpg3
    OR
    http://rapidshare.com/files/2485469241/dvdscr-englishvinglish-ddr.avi.001
    http://rapidshare.com/files/1736968677/dvdscr-englishvinglish-ddr.avi.002
    OR
    http://rapidgator.net/file/49562490/dvdscr-englishvinglish-ddr.avi.001.html
    http://rapidgator.net/file/49562394/dvdscr-englishvinglish-ddr.avi.002.html



 

 

Posting Permissions

  • You may not post new threads
  • You may not post replies
  • You may not post attachments
  • You may not edit your posts
  •