Results 1 to 1 of 1
  1. #1
    dR Rockers www.desirulez.net
    Join Date
    Jun 2012
    Posts
    1,341

    Thumbs up Kismet Love Paisa Dilli (2012) - 1/3 DVDScr - XviD - AC3 [DDR]

    Follow us on Social Media







    Kismet Love Paisa Dilli (2012)
    **DVDSCREENER XviD 1/3DVDRip**

    **Cleaned Audio**


    [ iNFO ]

    Code:
    General
    Complete name                            : dvdscr-klpd-ddr.avi
    Source					 : DDR
    Ripper				   	 : th3obr0
    
    Format                                   : AVI
    Format/Info                              : Audio Video Interleave
    File size                                : 1.42 GiB
    Duration                                 : 2h 19mn
    Overall bit rate                         : 1 455 Kbps
    Writing application                      : VirtualDubMod 1.5.10.2 (build 2540/release)
    Writing library                          : VirtualDubMod build 2540/release
    
    Video
    ID                                       : 0
    Format                                   : MPEG-4 Visual
    Format profile                           : Advanced [email protected]
    Format settings, BVOP                    : 2
    Format settings, QPel                    : No
    Format settings, GMC                     : No warppoints
    Format settings, Matrix                  : Custom
    Codec ID                                 : XVID
    Codec ID/Hint                            : XviD
    Duration                                 : 2h 19mn
    Bit rate                                 : 998 Kbps
    Width                                    : 720 pixels
    Height                                   : 288 pixels
    Display aspect ratio                     : 2.500
    Frame rate                               : 23.976 fps
    Color space                              : YUV
    Chroma subsampling                       : 4:2:0
    Bit depth                                : 8 bits
    Scan type                                : Progressive
    Compression mode                         : Lossy
    Bits/(Pixel*Frame)                       : 0.201
    Stream size                              : 996 MiB (69%)
    Writing library                          : XviD 1.2.1 (UTC 2008-12-04)
    
    Audio
    ID                                       : 1
    Format                                   : AC-3
    Format/Info                              : Audio Coding 3
    Mode extension                           : CM (complete main)
    Format settings, Endianness              : Big
    Codec ID                                 : 2000
    Duration                                 : 2h 19mn
    Bit rate mode                            : Constant
    Bit rate                                 : 448 Kbps
    Channel(s)                               : 6 channels
    Channel positions                        : Front: L C R, Side: L R, LFE
    Sampling rate                            : 48.0 KHz
    Bit depth                                : 16 bits
    Compression mode                         : Lossy
    Stream size                              : 447 MiB (31%)
    Alignment                                : Split accross interleaves
    Interleave, duration                     : 42 ms (1.00 video frame)
    Interleave, preload duration             : 500 ms
    [ SCREENS ]





















    Sample
    Code:
    http://mirrorstack.com/zd45nwo6hxld
    DownLoad

    NetLoad
    Code:
    http://netload.in/dateifzEuVDodwc/dvdscr-klpd-ddr.avi.htm
    ExtaBit
    Code:
    http://extabit.com/file/279qlsryua1h3/dvdscr-klpd-ddr.avi
    FileFactory
    Code:
    http://www.filefactory.com/file/4eh9ivqktu0d/n/dvdscr-klpd-ddr.avi
    RapidGator
    Code:
    http://rapidgator.net/file/49510691/dvdscr-klpd-ddr.avi.html

 

 

Posting Permissions

  • You may not post new threads
  • You may not post replies
  • You may not post attachments
  • You may not edit your posts
  •