Results 1 to 1 of 1
  1. #1

    Default English Vinglish (2012) [New Source DVDScr] [1CD Rip] [Xvid] [Team Ictv] [MiB672]

    Follow us on Social Media





    English Vinglish (2012) [New Source DVDScr] [1CD Rip] [Xvid] [Team Ictv] [MiB672]



    English Vinglish (2012)
    134 min - Drama - 4 October 2012 (Kuwait)
    Ratings: 8.7/10 from 412 users
    Reviews: 7 user | 24 critic


    A belittled and insecure Indian housewife enrolls in an English language class.

    Director: Gauri Shinde
    Writer: Gauri Shinde
    Stars: Sridevi, Adil Hussain and Mehdi Nebbou | See full cast and crew



    Code:
    General
    Complete name                  : I:\EV-2012.DVDScr.1CD.Rip.Xvid-Team Ictv.avi
    Format                         : AVI
    Format/Info                    : Audio Video Interleave
    File size                      : 672 MiB
    Duration                       : 2h 9mn
    Overall bit rate mode          : Variable
    Overall bit rate               : 723 Kbps
    
    Video
    ID                             : 0
    Format                         : MPEG-4 Visual
    Format profile                 : Advanced [email protected]
    Format settings, BVOP          : 2
    Format settings, QPel          : No
    Format settings, GMC           : No warppoints
    Format settings, Matrix        : Default (H.263)
    Codec ID                       : XVID
    Codec ID/Hint                  : XviD
    Duration                       : 2h 9mn
    Bit rate                       : 620 Kbps
    Width                          : 640 pixels
    Height                         : 272 pixels
    Display aspect ratio           : 2.35:1
    Frame rate                     : 23.976 fps
    Color space                    : YUV
    Chroma subsampling             : 4:2:0
    Bit depth                      : 8 bits
    Scan type                      : Progressive
    Compression mode               : Lossy
    Bits/(Pixel*Frame)             : 0.148
    Stream size                    : 576 MiB (86%)
    Writing library                : XviD 1.2.1 (UTC 2008-12-04)
    
    Audio
    ID                             : 1
    Format                         : MPEG Audio
    Format version                 : Version 1
    Format profile                 : Layer 3
    Mode                           : Joint stereo
    Mode extension                 : MS Stereo
    Codec ID                       : 55
    Codec ID/Hint                  : MP3
    Duration                       : 2h 9mn
    Bit rate mode                  : Variable
    Bit rate                       : 96.0 Kbps
    Channel(s)                     : 2 channels
    Sampling rate                  : 32.0 KHz
    Compression mode               : Lossy
    Stream size                    : 86.9 MiB (13%)
    Alignment                      : Aligned on interleaves
    Interleave, duration           : 36 ms (0.86 video frame)
    Interleave, preload duration   : 197 ms
    Title                          : English Vinglish - 2012 MC DVDSCR-Rip MKV 5.1 TeamTNT - [1] English
    Writing library                : LAME3.99r
    Encoding settings              : -m j -V 4 -q 2 -lowpass 15.1 --abr 96




    [DOWN]
    Code:
    http://filedefend.com/f8mfvvh8wigc/EV-2012.DVDScr.1CD.Rip.Xvid-Team_Ictv.avi
    [/DOWN]

    Split Link
    [DOWN]
    Code:
    http://filedefend.com/3rftq4ahnlcj/EV-2012.DVDScr.1CD.Rip.Xvid-Team_Ictv.avi.001
    http://filedefend.com/8s8il3i96v08/EV-2012.DVDScr.1CD.Rip.Xvid-Team_Ictv.avi.002
    [/DOWN]


 

 

Posting Permissions

  • You may not post new threads
  • You may not post replies
  • You may not post attachments
  • You may not edit your posts
  •