Results 1 to 2 of 2
  1. #1
    Hot Member www.desirulez.net
    Join Date
    Jul 2012
    Posts
    643

    Default Pseudo Blood Of Our Own (2012) - 1CD - WEBRip - XviD [DDR]

    Follow us on Social Media





    Pseudo Blood Of Our Own (2012) - 1CD - WEBRip - XviD [DDR]



    Pseudo: Blood of Our Own (2012)
    **DVDRip XviD 1CDRip**




    [ iNFO ]

    Code:
    General
    Complete name                            : 1cd-webrip-pseudo-ddr.avi
    Source					 : WEBRIP DDR
    Ripper					 : th3obr0
    
    Format                                   : AVI
    Format/Info                              : Audio Video Interleave
    File size                                : 696 MiB
    Duration                                 : 1h 38mn
    Overall bit rate                         : 987 Kbps
    Writing application                      : VirtualDubMod 1.5.10.2 (build 2540/release)
    Writing library                          : VirtualDubMod build 2540/release
    
    Video
    ID                                       : 0
    Format                                   : MPEG-4 Visual
    Format profile                           : Advanced [email protected]
    Format settings, BVOP                    : 2
    Format settings, QPel                    : No
    Format settings, GMC                     : No warppoints
    Format settings, Matrix                  : Custom
    Codec ID                                 : XVID
    Codec ID/Hint                            : XviD
    Duration                                 : 1h 38mn
    Bit rate                                 : 850 Kbps
    Width                                    : 640 pixels
    Height                                   : 272 pixels
    Display aspect ratio                     : 2.35:1
    Frame rate                               : 24.000 fps
    Color space                              : YUV
    Chroma subsampling                       : 4:2:0
    Bit depth                                : 8 bits
    Scan type                                : Progressive
    Compression mode                         : Lossy
    Bits/(Pixel*Frame)                       : 0.203
    Stream size                              : 600 MiB (86%)
    Writing library                          : XviD 1.2.1 (UTC 2008-12-04)
    
    Audio
    ID                                       : 1
    Format                                   : MPEG Audio
    Format version                           : Version 1
    Format profile                           : Layer 3
    Mode                                     : Joint stereo
    Mode extension                           : MS Stereo
    Codec ID                                 : 55
    Codec ID/Hint                            : MP3
    Duration                                 : 1h 38mn
    Bit rate mode                            : Constant
    Bit rate                                 : 128 Kbps
    Channel(s)                               : 2 channels
    Sampling rate                            : 48.0 KHz
    Compression mode                         : Lossy
    Stream size                              : 90.3 MiB (13%)
    Alignment                                : Aligned on interleaves
    Interleave, duration                     : 42 ms (1.00 video frame)
    Interleave, preload duration             : 504 ms
    [ SCREENS ]













    If U Like My Post Willing To Buy Premium For High Speed Resumable downloads Pls BuY Premium From This Links
    Code:
    http://rapidgator.net/file/49207149/1cdrip-pseudo-ddr.avi.html
    
    http://extabit.com/file/279w45ewc6ytz/1cdrip-pseudo-ddr.avi

  2. #2
    New Arrivals
    Join Date
    Oct 2012
    Posts
    1

    Default

    Thanks

 

 

Posting Permissions

  • You may not post new threads
  • You may not post replies
  • You may not post attachments
  • You may not edit your posts
  •