Results 1 to 1 of 1
  1. #1

    Default English Vinglish (2012) DVDScr x264 AC3 (Audio Cleaned) [500MB] [Team QMR] - Hindi

    Follow us on Social Media





    English Vinglish (2012) DVDScr x264 AC3 (Audio Cleaned) [500MB] [Team QMR] - deep1007



    English Vinglish (2012)
    134 min - Drama - 4 October 2012 (Kuwait)
    Ratings: 8.7/10 from 412 users
    Reviews: 7 user | 24 critic


    A belittled and insecure Indian housewife enrolls in an English language class.

    Director: Gauri Shinde
    Writer: Gauri Shinde
    Stars: Sridevi, Adil Hussain and Mehdi Nebbou | See full cast and crew



    Code:
    General
    Unique ID                      : 225067161453518237098696985614100119018 (0xA9525BCB841464D6F568D748E266BDEA)
    Complete name                  : I:\E.V(2012)DVDScr.(AudioCleaned)[500MB][Team.QMR].mkv
    Format                         : Matroska
    Format version                 : Version 2
    File size                      : 500 MiB
    Duration                       : 2h 2mn
    Overall bit rate               : 569 Kbps
    Writing application            : HandBrake 0.9.8
    Writing library                : libmkv 0.6.5
    
    Video
    ID                             : 1
    Format                         : AVC
    Format/Info                    : Advanced Video Codec
    Format profile                 : [email protected]
    Format settings, CABAC         : Yes
    Format settings, ReFrames      : 4 frames
    Codec ID                       : V_MPEG4/ISO/AVC
    Duration                       : 2h 2mn
    Bit rate                       : 484 Kbps
    Width                          : 608 pixels
    Height                         : 256 pixels
    Display aspect ratio           : 2.40:1
    Frame rate mode                : Variable
    Frame rate                     : 23.976 fps
    Color space                    : YUV
    Chroma subsampling             : 4:2:0
    Bit depth                      : 8 bits
    Scan type                      : Progressive
    Bits/(Pixel*Frame)             : 0.130
    Stream size                    : 420 MiB (84%)
    Writing library                : x264 core 120
    Encoding settings              : cabac=1 / ref=1 / deblock=1:0:0 / analyse=0x1:0x111 / me=hex / subme=2 / psy=1 / psy_rd=1.00:0.00 / mixed_ref=0 / me_range=16 / chroma_me=1 / trellis=0 / 8x8dct=0 / cqm=0 / deadzone=21,11 / fast_pskip=1 / chroma_qp_offset=0 / threads=3 / sliced_threads=0 / nr=0 / decimate=1 / interlaced=0 / bluray_compat=0 / constrained_intra=0 / bframes=3 / b_pyramid=2 / b_adapt=1 / b_bias=0 / direct=1 / weightb=1 / open_gop=0 / weightp=1 / keyint=240 / keyint_min=24 / scenecut=40 / intra_refresh=0 / rc_lookahead=10 / rc=2pass / mbtree=1 / bitrate=484 / ratetol=1.0 / qcomp=0.60 / qpmin=3 / qpmax=69 / qpstep=4 / cplxblur=20.0 / qblur=0.5 / ip_ratio=1.40 / aq=1:1.00
    Language                       : English
    Color primaries                : BT.601-6 525, BT.1358 525, BT.1700 NTSC, SMPTE 170M
    Transfer characteristics       : BT.709-5, BT.1361
    Matrix coefficients            : BT.601-6 525, BT.1358 525, BT.1700 NTSC, SMPTE 170M
    
    Audio
    ID                             : 2
    Format                         : AC-3
    Format/Info                    : Audio Coding 3
    Mode extension                 : CM (complete main)
    Codec ID                       : A_AC3
    Duration                       : 2h 2mn
    Bit rate mode                  : Constant
    Bit rate                       : 80.0 Kbps
    Channel(s)                     : 2 channels
    Channel positions              : Front: L R
    Sampling rate                  : 44.1 KHz
    Bit depth                      : 16 bits
    Compression mode               : Lossy
    Stream size                    : 70.3 MiB (14%)




    Code:
    http://filedefend.com/swxw14iqvdrf/E.V(2012)DVDScr.(AudioCleaned)[500MB][Team.QMR].mkv

 

 

Posting Permissions

  • You may not post new threads
  • You may not post replies
  • You may not post attachments
  • You may not edit your posts
  •