Results 1 to 1 of 1
  1. #1

    Thumbs up 'Bikram Singha - The Lion Is Back (2012)'Non Retail 2CD DVDRip -XVID-AC3(2Ch)-ExDRS

    Follow us on Social Media





    'Bikram Singha - The Lion Is Back (2012)'Non Retail 2CD DVDRip -XVID-AC3(2Ch)-ExDRS





    Code:
    plot:The story is about a small time conman Gupi who falls in love with Madhu when he runs into her at a wedding where he is not invited. A six year old girl also thinks Gupi to be her dad. Also some dangerous criminals are hot on his heels for certain reasons which are completly unknown to him. He also lands up in a town called Debgarh which is under the control of itís M.L A and his gang and he terrorizes the entire the entire town. Hence the only saviour for the town can be Gupi who becomes Bikram Singha. 
    
    Cast:Prosenjit, Partho, Richa Gangopadhyay, Anusmriti, Supriyo Dutta and Mahek Chahal
    
    General
    Format : AVI
    Format/Info : Audio Video Interleave
    File size : 1.37 GiB
    Duration : 2h 37mn
    Overall bit rate : 1 242 Kbps
    Video #0
    ID : 0
    Format : MPEG-4 Visual
    Format profile : Advanced [email protected]
    Format settings, BVOP : 2
    Format settings, QPel : No
    Format settings, GMC : No warppoints
    Format settings, Matrix : Default (H.263)
    Codec ID : XVID
    Codec ID/Hint : XviD
    Duration : 2h 37mn
    Bit rate : 1 106 Kbps
    Width : 720 pixels
    Height : 304 pixels
    Display aspect ratio : 2.35:1
    Frame rate : 25.000 fps
    Color space : YUV
    Chroma subsampling : 4:2:0
    Bit depth : 8 bits
    Scan type : Progressive
    Compression mode : Lossy
    Bits/(Pixel*Frame) : 0.202
    Stream size : 1.22 GiB (89%)
    
    
    
    Audio #1
    ID : 1
    Format : AC-3
    Format/Info : Audio Coding 3
    Mode extension : CM (complete main)
    Format settings, Endianness : Big
    Codec ID : 2000
    Duration : 2h 37mn
    Bit rate mode : Constant
    Bit rate : 128 Kbps
    Channel(s) : 2 channels
    Channel positions : Front: L R
    Sampling rate : 48.0 KHz
    Bit depth : 16 bits
    Compression mode : Lossy
    Stream size : 144 MiB (10%)






    Code:
    Sample
    http://www.sendspace.com/file/saag8r
    Code:
    http://ultramegabit.com/file/details/U76rDRwi3Qc
    http://ultramegabit.com/file/details/bh_DHApcdDM
    OR
    http://extabit.com/file/279yvm2coap5p/Bikram.Singha.The.Lion.Is.Back.2012.Non Retail.2CD.DVDRip.XVID.AC3.2Ch.avi.001
    http://extabit.com/file/279yvm2coayl9/Bikram.Singha.The.Lion.Is.Back.2012.Non Retail.2CD.DVDRip.XVID.AC3.2Ch.avi.002
    OR
    http://rapidgator.net/file/48847359/Bikram.Singha.The.Lion.Is.Back.2012.Non_Retail.2CD.DVDRip.XVID.AC3.2Ch.avi.002.html
    http://rapidgator.net/file/48848048/Bikram.Singha.The.Lion.Is.Back.2012.Non_Retail.2CD.DVDRip.XVID.AC3.2Ch.avi.001.html
    OR
    http://rapidshare.com/files/2990481032/Bikram.Singha.The.Lion.Is.Back.2012.Non%20Retail.2CD.DVDRip.XVID.AC3.2Ch.avi.002
    http://rapidshare.com/files/2439620375/Bikram.Singha.The.Lion.Is.Back.2012.Non%20Retail.2CD.DVDRip.XVID.AC3.2Ch.avi.001

 

 

Posting Permissions

  • You may not post new threads
  • You may not post replies
  • You may not post attachments
  • You may not edit your posts
  •