Results 1 to 1 of 1
  1. #1

    Thumbs up Krishna (2008) HDrip Hindi-Telugu - AbdullaH

    Follow us on Social Media





    Krishna (2008) HDrip Hindi-Telugu - AbdullaH


    Code:
    IMDB:http://www.imdb.com/title/tt1173506/
    
    Format : Matroska
    Format version : Version 2
    File size : 866 MiB
    Duration : 2h 23mn
    Overall bit rate : 846 Kbps
    Encoded date : UTC 2012-10-05 02:51:19
    Writing application : mkvmerge v4.9.1 ('Ich will') built on Jul 11 2011 23:53:15
    Writing library : libebml v1.2.1 + libmatroska v1.1.1
    
    Video
    ID : 1
    Format : AVC
    Format/Info : Advanced Video Codec
    Format profile : [email protected]
    Format settings, CABAC : Yes
    Format settings, ReFrames : 5 frames
    Muxing mode : Header stripping
    Codec ID : V_MPEG4/ISO/AVC
    Duration : 2h 23mn
    Bit rate : 618 Kbps
    Width : 640 pixels
    Height : 272 pixels
    Display aspect ratio : 2.35:1
    Frame rate : 19.181 fps
    Color space : YUV
    Chroma subsampling : 4:2:0
    Bit depth : 8 bits
    Scan type : Progressive
    Bits/(Pixel*Frame) : 0.185
    Stream size : 620 MiB (72%)
    Title : Krishna 2008 HDrip Hindi- Telugu BY AbdullaH
    Writing library : x264 core 67 r1148M 400740b
    Encoding settings : cabac=1 / ref=5 / deblock=1:-1:-1 / analyse=0x3:0x133 / me=umh / subme=7 / psy_rd=1.0:0.0 / mixed_ref=1 / me_range=16 / chroma_me=1 / trellis=2 / 8x8dct=1 / cqm=0 / deadzone=21,11 / chroma_qp_offset=-2 / threads=3 / nr=0 / decimate=1 / mbaff=0 / bframes=3 / b_pyramid=1 / b_adapt=2 / b_bias=0 / direct=3 / wpredb=1 / keyint=250 / keyint_min=25 / scenecut=40 / rc=2pass / bitrate=618 / ratetol=1.0 / qcomp=0.60 / qpmin=10 / qpmax=51 / qpstep=4 / cplxblur=20.0 / qblur=0.5 / ip_ratio=1.40 / pb_ratio=1.30 / aq=1:1.00
    Language : Hindi
    Default : Yes
    Forced : No
    
    Audio #1
    ID : 2
    Format : MPEG Audio
    Format version : Version 1
    Format profile : Layer 3
    Muxing mode : Header stripping
    Codec ID : A_MPEG/L3
    Codec ID/Hint : MP3
    Duration : 2h 23mn
    Bit rate mode : Constant
    Bit rate : 96.0 Kbps
    Channel(s) : 2 channels
    Sampling rate : 44.1 KHz
    Compression mode : Lossy
    Stream size : 98.3 MiB (11%)
    Title : BY AbdullaH
    Language : Telugu
    Default : No
    Forced : No
    
    Audio #2
    ID : 3
    Format : MPEG Audio
    Format version : Version 1
    Format profile : Layer 3
    Muxing mode : Header stripping
    Codec ID : A_MPEG/L3
    Codec ID/Hint : MP3
    Duration : 2h 23mn
    Bit rate mode : Constant
    Bit rate : 128 Kbps
    Channel(s) : 2 channels
    Sampling rate : 44.1 KHz
    Compression mode : Lossy
    Stream size : 131 MiB (15%)
    Title : BY AbdullaH
    Language : Hindi
    Default : Yes
    Forced : No















    Code:
    Sample
    http://rapidshare.com/files/1569743951/(Sample)Krishna.2008.HDrip.Hindi.Telugu.AbdullaH.mkv
    Code:
    RESUME SUPPORT FILE[IDM+DAP SUPPORTED]
    http://ultramegabit.com/file/details/JyekhSK2-3I
    OR
    http://extabit.com/file/29zqrmw3qqi77
    OR
    http://rapidgator.net/file/48657523/Krishna.2008.HDrip.Hindi.Tel.AbdullaH.mkv.html



 

 

Posting Permissions

  • You may not post new threads
  • You may not post replies
  • You may not post attachments
  • You may not edit your posts
  •