Results 1 to 1 of 1
  1. #1

    Default English Vinglish (2012) Untouched VOB Scam

    Follow us on Social Media





    English Vinglish (2012) Untouched VOB Scam





    Code:
    Complete name                    : English.Vinglish.2012-SCam.Rip_7887\English.Vinglish.2012-SCam.Rip.VOB
    Format                           : MPEG-PS
    File size                        : 695.80 MiB
    Duration                         : 02:02:51
    Overall bit rate                 : 792 kb/s
    
    Video
    ID                               : 224 (0xE0)
    Format                           : MPEG Video
    Format version                   : Version 2
    Format profile                   : [email protected]
    Format settings, BVOP            : Yes
    Format settings, Matrix          : Default
    Duration                         : 4mn 12s
    Bit rate mode                    : Variable
    Bit rate                         : 475 Kbps
    Nominal bit rate                 : 9 672 Kbps
    Width                            : 352 pixels
    Height                           : 288 pixels
    Display aspect ratio             : 4:3
    Frame rate                       : 25.000 fps
    Standard                         : PAL
    Color space                      : YUV
    Chroma subsampling               : 4:2:0
    Bit depth                        : 8 bits
    Scan type                        : Progressive
    Compression mode                 : Lossy
    Bits/(Pixel*Frame)               : 0.187
    Stream size                      : 14.3 MiB (77%)
    
    Audio
    ID                               : 192 (0xC0)
    Format                           : MPEG Audio
    Format version                   : Version 1
    Format profile                   : Layer 2
    Duration                         : 4mn 12s
    Bit rate mode                    : Constant
    Bit rate                         : 128 Kbps
    Channel(s)                       : 2 channels
    Sampling rate                    : 48.0 KHz
    Compression mode                 : Lossy
    Stream size                      : 3.85 MiB (21%)



    Resumable Links

    Code:
    http://aavg.net/9uf2wsdtup5e
    http://aavg.net/6mhz5ortcw13

    Single Resumable Links

    Code:
    http://ultramegabit.com/file/details/PuvzBuPF804
    
    http://muchshare.net/t9bg45h3ok38
    
    http://www.secureupload.eu/bti0fldlo727/English.Vinglish.2012-SCam.Rip-MPEG-PS.VOB
    
    https://rapidshare.com/files/1412166225/English.Vinglish.2012-SCam.Rip-MPEG-PS.VOB







 

 

Tags for this Thread

Posting Permissions

  • You may not post new threads
  • You may not post replies
  • You may not post attachments
  • You may not edit your posts
  •