Results 1 to 4 of 4
  1. #1

    Default iIFA Awards Weekend Magic With The Stars-28th Jun-XviD-VRF

    Follow us on Social Media







    General
    Complete name : **********\iIFA.Awards.Weekend.Magic.With.The.Stars .28th Jun.XviD.VRF.avi
    Format : AVI
    Format/Info : Audio Video Interleave
    File size : 699 MiB
    Duration : 43mn 22s
    Overal bit rate : 2254 Kbps
    Writing library : MPlayer

    Video
    Format : MPEG-4 Visual
    Format profile : [email protected]
    Format settings, BVOP : No
    Format settings, QPel : No
    Format settings, GMC : No warppoints
    Format settings, Matrix : Default
    Codec ID : XVID
    Codec ID/Hint : XviD
    Duration : 43mn 21s
    Bit rate : 2050 Kbps
    Width : 720 pixels
    Height : 576 pixels
    Display aspect ratio : 5/4
    Frame rate : 25.000 fps
    Standard : PAL
    Resolution : 8 bits
    Colorimetry : 4:2:0
    Scan type : Progressive
    Bits/(Pixel*Frame) : 0.198
    Stream size : 636 MiB
    Writing library : Lavc51.54.0

    Audio
    Format : MPEG Audio
    Format version : Version 1
    Format profile : Layer 3
    Codec ID : 55
    Codec ID/Hint : MP3
    Duration : 43mn 22s
    Bit rate mode : Constant
    Bit rate : 192 Kbps
    Channel(s) : 2 channels
    Sampling rate : 44.1 KHz
    Resolution : 16 bits
    Stream size : 59.6 MiB



    Download:

    Rapidshare
    Code:
    http://rapidshare.com/files/250296117/iIFA.Awards.Weekend.Magic.With.The.Stars.avi.001
    http://rapidshare.com/files/250295960/iIFA.Awards.Weekend.Magic.With.The.Stars.avi.002
    http://rapidshare.com/files/250302782/iIFA.Awards.Weekend.Magic.With.The.Stars.avi.003
    http://rapidshare.com/files/250302462/iIFA.Awards.Weekend.Magic.With.The.Stars.avi.004
    http://rapidshare.com/files/250303162/iIFA.Awards.Weekend.Magic.With.The.Stars.avi.005
    http://rapidshare.com/files/250308965/iIFA.Awards.Weekend.Magic.With.The.Stars.avi.006
    http://rapidshare.com/files/250295938/iIFA.Awards.Weekend.Magic.With.The.Stars.avi.007

  2. #2

    Default

    thanksssssssss

  3. #3
    dR Angels www.desirulez.net
    Join Date
    Apr 2009
    Posts
    5,083

    T

    Default

    Thanks !!!
    <img src=http://www.orkut-scrap.net/img/Animated-Dolls/1.gif >

  4. #4
    Retired Staff www.desirulez.net
    Join Date
    Dec 2008
    Location
    London, UK
    Posts
    3,339

    T

    Default

    thanks alot for sharing!



 

 

Tags for this Thread

Posting Permissions

  • You may not post new threads
  • You may not post replies
  • You may not post attachments
  • You may not edit your posts
  •