Results 1 to 1 of 1
  1. #1
    Hot Member www.desirulez.net
    Join Date
    Jul 2012
    Posts
    643

    Default Shirin Farhad Ki Toh Nikal Padi (2012) 1CD DVDRip XviD [DDR]

    Follow us on Social Media





    [center]Shirin Farhad Ki Toh Nikal Padi (2012) 1CD DVDRip XviD [DDR]




    Code:
    General 
    Complete name : 1cdrip-shirin-ddr.avi 
    Source : DDR Ripper : th3obr0 
    Format : AVI 
    Format/Info : Audio Video Interleave 
    File size : 698 MiB 
    Duration : 1h 51mn 
    Overall bit rate mode : Variable 
    Overall bit rate : 873 Kbps 
    Writing application : VirtualDubMod 1.5.10.2 (build 2540/release) 
    Writing library : VirtualDubMod build 2540/release 
    
    Video
    ID : 0 
    Format : MPEG-4 Visual 
    Format profile : Advanced [email protected] 
    Format settings, BVOP : 1 
    Format settings, QPel : No 
    Format settings, GMC : No warppoints 
    Format settings, Matrix : Custom 
    Codec ID : XVID 
    Codec ID/Hint : XviD 
    Duration : 1h 51mn 
    Bit rate : 773 Kbps 
    Width : 672 pixels 
    Height : 288 pixels 
    Display aspect ratio : 2.35:1 
    Frame rate : 23.976 fps 
    Color space : YUV 
    Chroma subsampling : 4:2:0 
    Bit depth : 8 bits 
    Scan type : Progressive 
    Compression mode : Lossy 
    Bits/(Pixel*Frame) : 0.167 
    Stream size : 618 MiB (88%) 
    Writing library : XviD 1.2.1 (UTC 2008-12-04) 
    
    Audio
    ID : 1 
    Format : MPEG Audio 
    Format version : Version 1 
    Format profile : Layer 3 
    Mode : Joint stereo 
    Mode extension : MS Stereo 
    Codec ID : 55 
    Codec ID/Hint : MP3 
    Duration : 1h 51mn 
    Bit rate mode : Variable 
    Bit rate : 90.7 Kbps 
    Nominal bit rate : 96.0 Kbps 
    Channel(s) : 2 channels 
    Sampling rate : 32.0 KHz 
    Compression mode : Lossy 
    Delay relative to video : 540ms 
    Stream size : 72.5 MiB (10%) 
    Alignment : Split accross interleaves 
    Interleave, duration : 36 ms (0.86 video frame) 
    Writing library : LAME3.99r
    Encoding settings : -m j -V 4 -q 2 -lowpass 15.1 --abr 96










    [code]


    If U Like My Post Willing To Buy Premium For High Speed Resumable downloads Pls BuY Premium From This Links
    Code:
    http://extabit.com/file/279w3vszy259o/1cdrip-shirin-ddr.avi
    
    http://rapidgator.net/file/48036513/1cdrip-shirin-ddr.avi.html

 

 

Posting Permissions

  • You may not post new threads
  • You may not post replies
  • You may not post attachments
  • You may not edit your posts
  •