Results 1 to 1 of 1
  1. #1

    Thumbs up Shirin Farhad Ki Toh Nikal Padi (2012) - 720p - DVDRip - x264 - DD 5.1 - Msubs [DDR]

    Follow us on Social Media





    Shirin Farhad Ki Toh Nikal Padi (2012) - 720p - DVDRip - x264 - DD 5.1 - Msubs [DDR]



    Code:
    Complete name                            : 720p-shirin-ddr.mkv
    Source					 : DDR
    Ripper 					 : th3obr0
    
    Format                                   : Matroska
    Format version                           : Version 2
    File size                                : 2.18 GiB
    Duration                                 : 1h 51mn
    Overall bit rate                         : 2 789 Kbps
    Encoded date                             : UTC 2012-10-02 22:18:19
    Writing application                      : mkvmerge v5.7.0 ('The Whirlwind') built on Jul  8 2012 20:08:51
    Writing library                          : libebml v1.2.3 + libmatroska v1.3.0
    
    Video
    ID                                       : 1
    Format                                   : AVC
    Format/Info                              : Advanced Video Codec
    Format profile                           : [email protected]
    Format settings, CABAC                   : Yes
    Format settings, ReFrames                : 4 frames
    Codec ID                                 : V_MPEG4/ISO/AVC
    Duration                                 : 1h 51mn
    Bit rate                                 : 2 340 Kbps
    Width                                    : 1 280 pixels
    Height                                   : 544 pixels
    Display aspect ratio                     : 2.35:1
    Frame rate                               : 23.976 fps
    Color space                              : YUV
    Chroma subsampling                       : 4:2:0
    Bit depth                                : 8 bits
    Scan type                                : Progressive
    Bits/(Pixel*Frame)                       : 0.140
    Stream size                              : 1.78 GiB (82%)
    Title                                    : Shirin 720p [DDR]
    Writing library                          : x264 core 125 r2200 999b753
    Language                                 : Hindi
    Default                                  : Yes
    Forced                                   : No
    
    Audio
    ID                                       : 2
    Format                                   : AC-3
    Format/Info                              : Audio Coding 3
    Mode extension                           : CM (complete main)
    Format settings, Endianness              : Big
    Codec ID                                 : A_AC3
    Duration                                 : 1h 51mn
    Bit rate mode                            : Constant
    Bit rate                                 : 448 Kbps
    Channel(s)                               : 6 channels
    Channel positions                        : Front: L C R, Side: L R, LFE
    Sampling rate                            : 48.0 KHz
    Bit depth                                : 16 bits
    Compression mode                         : Lossy
    Delay relative to video                  : 500ms
    Stream size                              : 358 MiB (16%)
    Title                                    : Hindi 5.1 [DDR]
    Language                                 : Hindi
    Default                                  : Yes
    Forced                                   : No










    Code:
    sample
    http://mirrorstack.com/jvr7a71dcjyl
    Code:
    http://extabit.com/file/2a0fqtlh3xpqt
    http://extabit.com/file/2a0fqtlh3yeyt
    http://extabit.com/file/2a0fqtlh06ox1
    
    http://extabit.com/file/2a0fqtlh3y5fp
    OR
    http://rapidshare.com/files/2956146236/720p-shirin-ddr.mkv.001
    http://rapidshare.com/files/2715158730/720p-shirin-ddr.mkv.002
    http://rapidshare.com/files/1550660905/720p-shirin-ddr.mkv.003
    http://rapidshare.com/files/739019393/720p-shirin-ddr.rar
    OR
    http://ul.to/xc9fo4r1
    http://ul.to/9kl8zld5
    http://ul.to/u62efyet
    
    http://ul.to/bojrljhc



 

 

Posting Permissions

  • You may not post new threads
  • You may not post replies
  • You may not post attachments
  • You may not edit your posts
  •