Results 1 to 1 of 1
  1. #1
    Hot Member www.desirulez.net
    Join Date
    Oct 2011
    Posts
    536

    Thumbs up Shirin Farhad Ki Toh Nikal Padi (2012) - 1/3 DVDRip - XviD - AC3 - MSubs [DDR]

    Follow us on Social Media





    Shirin Farhad Ki Toh Nikal Padi (2012) - 1/3 DVDRip - XviD - AC3 - MSubs [DDR]



    Shirin Farhad Ki Toh Nikal Padi (2012)
    **720p DVDRip x264 5.1 AC3 MSubs**




    [ iNFO ]
    Code:
    General
    Complete name                            : dvdrip-shirin-ddr.avi
    Source      : DDR
    Ripper      : th3obr0
    
    Format                                   : AVI
    Format/Info                              : Audio Video Interleave
    File size                                : 1.45 GiB
    Duration                                 : 1h 51mn
    Overall bit rate                         : 1 852 Kbps
    Writing application                      : VirtualDubMod 1.5.10.2 (build 2540/release)
    Writing library                          : VirtualDubMod build 2540/release
    
    Video
    ID                                       : 0
    Format                                   : MPEG-4 Visual
    Format profile                           : Advanced [email protected]
    Format settings, BVOP                    : 2
    Format settings, QPel                    : No
    Format settings, GMC                     : No warppoints
    Format settings, Matrix                  : Custom
    Codec ID                                 : XVID
    Codec ID/Hint                            : XviD
    Duration                                 : 1h 51mn
    Bit rate                                 : 1 400 Kbps
    Width                                    : 720 pixels
    Height                                   : 304 pixels
    Display aspect ratio                     : 2.35:1
    Frame rate                               : 23.976 fps
    Color space                              : YUV
    Chroma subsampling                       : 4:2:0
    Bit depth                                : 8 bits
    Scan type                                : Progressive
    Compression mode                         : Lossy
    Bits/(Pixel*Frame)                       : 0.267
    Stream size                              : 1.09 GiB (76%)
    Writing library                          : XviD 1.2.1 (UTC 2008-12-04)
    
    Audio
    ID                                       : 1
    Format                                   : AC-3
    Format/Info                              : Audio Coding 3
    Mode extension                           : CM (complete main)
    Format settings, Endianness              : Big
    Codec ID                                 : 2000
    Duration                                 : 1h 51mn
    Bit rate mode                            : Constant
    Bit rate                                 : 448 Kbps
    Channel(s)                               : 6 channels
    Channel positions                        : Front: L C R, Side: L R, LFE
    Sampling rate                            : 48.0 KHz
    Bit depth                                : 16 bits
    Compression mode                         : Lossy
    Delay relative to video                  : 500ms
    Stream size                              : 358 MiB (24%)
    Alignment                                : Split accross interleaves
    Interleave, duration                     : 4680 ms (112.21 video frames)
    [ SCREENS ]










    SAMPLE | SIZE: 13.94 MB
    Code:
    http://extabit.com/file/279qlhc60pqra/dvdrip-shirin-ddr-Sample.avi
    http://rapidgator.net/file/47971795/dvdrip-shirin-ddr-Sample.avi.html
    http://uploaded.net/file/vs5962ag/dvdrip-shirin-ddr-Sample.avi
    http://www.netload.in/dateilmeSoedd8Y/dvdrip-shirin-ddr-Sample.avi.htm
    -----DOWNLOAD-----

    -----SINGLE LINK | SIZE: 1.45 GB-----

    EXTABIT
    Code:
    http://extabit.com/file/279qlhc60pqnq/dvdrip-shirin-ddr.avi
    
    http://extabit.com/file/279qlhc60ptty/dvdrip-shirin-ddr.rar
    RAPIDGATOR
    Code:
    http://rapidgator.net/file/47972425/dvdrip-shirin-ddr.avi.html
    
    http://rapidgator.net/file/47971791/dvdrip-shirin-ddr.rar.html
    UPLOADED
    Code:
    http://uploaded.net/file/4g3wraai/dvdrip-shirin-ddr.avi
    
    http://uploaded.net/file/nw7efy27/dvdrip-shirin-ddr.rar
    NETLOAD
    Code:
    http://www.netload.in/dateiFOrY2lIFnG/dvdrip-shirin-ddr.avi.htm
    
    http://www.netload.in/dateiiiGIhXwEIm/dvdrip-shirin-ddr.rar.htm
    =======================
    Thanks For Download !!!
    =======================

 

 

Posting Permissions

  • You may not post new threads
  • You may not post replies
  • You may not post attachments
  • You may not edit your posts
  •