Results 1 to 1 of 1
  1. #1

    Thumbs up Hemlock Society (2012) - DVDSCR Untouched 1CD -MPEG-PS.VOB - ExDRS

    Follow us on Social Media





    Hemlock Society (2012) - DVDSCR Untouched 1CD -MPEG-PS.VOB - ExDRS



    Code:
    General
    Format : MPEG-PS
    File size : 712 MiB
    Duration : 2h 20mn
    Overall bit rate mode : Variable
    Overall bit rate : 709 Kbps
    Video #224
    ID : 224 (0xE0)
    Format : MPEG Video
    Format version : Version 2
    Format profile : [email protected]
    Format settings, BVOP : Yes
    Format settings, Matrix : Default
    Format settings, GOP : M=3, N=15
    Duration : 2h 20mn
    Bit rate mode : Variable
    Bit rate : 503 Kbps
    Maximum bit rate : 9 008 Kbps
    Width : 352 pixels
    Height : 240 pixels
    Display aspect ratio : 4:3
    Frame rate : 29.970 fps
    Standard : NTSC
    Color space : YUV
    Chroma subsampling : 4:2:0
    Bit depth : 8 bits
    Scan type : Progressive
    Compression mode : Lossy
    Bits/(Pixel*Frame) : 0.199
    Stream size : 505 MiB (71%)
    
    
    
    Audio #189-128
    ID : 189 (0xBD)-128 (0x80)
    Format : AC-3
    Format/Info : Audio Coding 3
    Mode extension : CM (complete main)
    Format settings, Endianness : Big
    Muxing mode : DVD-Video
    Duration : 2h 20mn
    Bit rate mode : Constant
    Bit rate : 192 Kbps
    Channel(s) : 2 channels
    Channel positions : Front: L R
    Sampling rate : 48.0 KHz
    Bit depth : 16 bits
    Compression mode : Lossy
    Delay relative to video : -3s 504ms
    Stream size : 193 MiB (27%)






    Code:
    Resume Support File[IDM+DAP Supported]
    http://ultramegabit.com/file/details/x2kCMcXTJGU
    OR
    http://fileuplo.de/hwt4l3x5uxti.html
    OR
    http://extabit.com/file/2a0fqvbmhv2k5
    OR
    http://rapidshare.com/files/582909782/Hemlock.Society.2012.DVDSCR.Rip.711MB.MPEG.PS.VOB

 

 

Posting Permissions

  • You may not post new threads
  • You may not post replies
  • You may not post attachments
  • You may not edit your posts
  •